.
Авторизация | Регистрация
» » Два друга (1954) SATRip от New-Team скачать через торрент бесплатно




    Два друга (1954) SATRip от New-Team скачать через торрент бесплатно

    Опубликовал: Админ | Дата: 27-02-2015, 11:10 | Просмотров: 181


    Снималось в: СССР
    Создали в: Студия Горького
    Категория жанра: семейный, детский, приключения
    Создали в: 1954
    Время просмотра: 01:10:53
    Перевод текста:Не требуется
    Субтитры подготовлены: нет
    Оригинальная аудиодорожка: русский
    Главный режиссер: Виктор Эйсымонт

    Актеры

    Леонид Крауклис, Володя Гуськов, Миша Аронов, Витя Белов, Наташа Заслуева, Ксения Спиридонова, Борис Бурляев, Вера Орлова, Даниил Сагал, Янина Жеймо, Ирина Зарубина, Ксана Бибина, Николай Сморчков, Виктор Хохряков...
    Описание:
    Много огорчений причиняют пионерскому звену два неразлучных дружка, Витя Малеев и Костя Шишкин: в дневниках у них то и дело появляются двойки. Друзья слишком увлекаются футболом. Только сумерки заставляют их покинуть спортивную площадку. Мать Вити Малеева отбирает у сына футбольный мяч, но друзья изобретают новые развлечения, и количество двоек в их дневниках угрожающе растёт. Костя Шишкин под предлогом болезни вовсе перестает посещать школу…



    Источник:DVB
    Качество фильма видео:SATRip
    Тип видео видео: AVI
    Информация о видео: 688x512 (4:3), 25 fps, XviD ~ 2003 kbps avg, 0.227 bit/pixel
    Информация о звуке: 48 kHz, Dolby Digital AC3 2.0, 192 kbps
    Раздача от:
    MediaInfo

    Общее
    Полное имя : Dva.druga.1954.DVDRip_New-team_by_AVP_Studio.avi
    Формат : AVI
    Формат/Информация : Audio Video Interleave
    Размер файла : 1,09 Гбайт
    Продолжительность : 1 ч. 10 м.
    Общий поток : 2205 Кбит/сек
    Программа кодирования : VirtualDubModRus 1.5.10.2 (build 2542/release)
    Библиотека кодирования : VirtualDubMod build 2542/release
    Видео
    Идентификатор : 0
    Формат : MPEG-4 Visual
    Профиль формата : Advanced Simple@L5
    Параметр BVOP формата : 1
    Параметр QPel формата : Нет
    Параметр GMC формата : Без точки перехода
    Параметр матрицы формата : Выборочная
    Идентификатор кодека : XVID
    Идентификатор кодека/Подсказка : XviD
    Продолжительность : 1 ч. 10 м.
    Битрейт : 2003 Кбит/сек
    Ширина : 688 пикселей
    Высота : 512 пикселей
    Соотношение сторон : 4:3
    Частота кадров : 25,000 кадров/сек
    Цветовое пространство : YUV
    Субдискретизация насыщенности : 4:2:0
    Битовая глубина : 8 бит
    Тип развёртки : Прогрессивная
    Метод сжатия : С потерями
    Бит/(Пиксели*Кадры) : 0.227
    Размер потока : 1016 Мбайт (91%)
    Библиотека кодирования : XviD 73
    Аудио
    Идентификатор : 1
    Формат : AC-3
    Формат/Информация : Audio Coding 3
    Расширение режима : CM (complete main)
    Параметр Endianness формата : Big
    Идентификатор кодека : 2000
    Продолжительность : 1 ч. 10 м.
    Вид битрейта : Постоянный
    Битрейт : 192 Кбит/сек
    Каналы : 2 канала
    Расположение каналов : Front: L R
    Частота : 48,0 КГц
    Битовая глубина : 16 бит
    Метод сжатия : С потерями
    Размер потока : 97,4 Мбайт (9%)
    Выравнивание : Разделение по промежуткам
    Продолжительность промежутка : 40 мс. (1,00 видеокадр)
    Время предзагрузки промежутка : 500 мс

    Скриншоты



    Залил: AVPStudio
    Размер скачиваемого торрента: 1.09 GB (1172451328 Bytes)

    Два друга (1954) SATRip от New-Team скачать через торрент бесплатно
    загрузка...
    Рейтинг →
     (голосов: 1, оценка 5/5, голосовать можно 1 раз )

    Другие торренты по теме:

  • Два парня / Два друга / Two Guys / Tu gaijeu (2004) DVDRip | L1 торрент скачать бесплатно


    • Комментарии (0):

      Информация

      Информация

        Посетители, находящиеся в группе Гости, не могут оставлять комментарии в данной новости.

        ↓ Меню



        ↓ Опрос

        А Вы добавили сайт в закладки?
        Да
        Не


        Top 10 за неделю (Фильмы)