.
Авторизация | Регистрация
» » Мажестик / The Majestic (2001) BDRip | D скачать через торрент бесплатно




    Мажестик / The Majestic (2001) BDRip | D скачать через торрент бесплатно

    Опубликовал: Админ | Дата: 27-02-2015, 11:10 | Просмотров: 161


    Детально о кино
    Русское название:Мажестик
    Русское название в мировом прокате:The Majestic
    Создали в:2001
    Категория жанра:драма
    Главный режиссер:Фрэнк Дарабонт

    Актеры
    Джим Керри, Лори Холден, Мартин Ландау, Хэл Холбрук, Джеффри ДеМанн, Боб Бэлабан, Брент Бриско, Рон Рифкин, Джерри Блэк, Дэвид Огден Стайерз

    Сюжет фильма

    История о человеке, ищущем самого себя. Питер, голливудский сценарист, случайно попадает в маленький городок Лоусон в Калифорнии: после автомобильной аварии он полностью теряет память.
    Его принимают за пропавшего без вести героя Второй мировой. Питер, который сам поверил в это, берется за восстановление заброшенного городского кинотеатра. Невеста героя, которая ждала его несколько лет, также не замечает, что рядом с ней — двойник. Прекрасная жизнь основана на прекрасном обмане. Но правда, рано или поздно, откроется…

    Снималось в:США, Австралия
    Киностудия:Фрэнк Дарабонт
    Время просмотра:02:32:45
    Перевод текста:Профессиональный (полное дублирование) BD CEE
    Субтитры подготовлены:нет
    Файл
    Качество фильма:BDRip Blu-ray Disc | 1080p | BLUEBIRD
    Тип видео: AVI
    Информация о видео: 656x368 (1.78:1), 23.976 fps, XviD build 73 ~1230 kbps avg, 0.21 bit/pixel
    Информация о звуке: 48 kHz, MPEG Layer 3, 2 ch, ~128.00 kbps avg
    Скриншоты
    MediaInfo
    General
    Complete name : D:Majestic_2001_BDRip_by_Dalemake.avi
    Format : AVI
    Format/Info : Audio Video Interleave
    File size : 1.46 GiB
    Duration : 2h 32mn
    Overall bit rate : 1 368 Kbps
    Writing application : VirtualDubMod 1.5.10.3 | www.virtualdub-fr.org || (build 2550/release)
    Writing library : VirtualDubMod build 2550/release
    Video
    ID : 0
    Format : MPEG-4 Visual
    Format profile : Advanced Simple@L5
    Format settings, BVOP : 1
    Format settings, QPel : No
    Format settings, GMC : No warppoints
    Format settings, Matrix : Custom
    Codec ID : XVID
    Codec ID/Hint : XviD
    Duration : 2h 32mn
    Bit rate : 1 230 Kbps
    Width : 656 pixels
    Height : 368 pixels
    Display aspect ratio : 16:9
    Frame rate : 23.976 fps
    Color space : YUV
    Chroma subsampling : 4:2:0
    Bit depth : 8 bits
    Scan type : Progressive
    Compression mode : Lossy
    Bits/(Pixel*Frame) : 0.213
    Stream size : 1.31 GiB (90%)
    Writing library : XviD 73
    Audio
    ID : 1
    Format : MPEG Audio
    Format version : Version 1
    Format profile : Layer 3
    Codec ID : 55
    Codec ID/Hint : MP3
    Duration : 2h 32mn
    Bit rate mode : Constant
    Bit rate : 128 Kbps
    Channel(s) : 2 channels
    Sampling rate : 48.0 KHz
    Compression mode : Lossy
    Stream size : 140 MiB (9%)
    Alignment : Aligned on interleaves
    Interleave, duration : 42 ms (1.00 video frame)
    Interleave, preload duration : 504 ms
    Writing library : LAME3.99r
    Encoding settings : -m s -V 4 -q 2 -lowpass 17 -b 128

    Спасибо большое dalemake!

    Размер скачиваемого торрента: 1.46 GB (1566861312 Bytes)

    Мажестик/The Majestic (2001) BDRip | D скачать через торрент бесплатно
    загрузка...
    Рейтинг →
     (голосов: 1, оценка 3/5, голосовать можно 1 раз )

    Другие торренты по теме:

  • Великолепный / Потрясающий / Мажестик / The Majestic (2001) WEB-DLRip | D, P торрент скачать бесплатно
  • Великолепный / Потрясающий / Мажестик / The Majestic (2001) BDRip от HQCLUB | Лицензия скачать через торрент бесплатно
  • Мажестик / The Majestic (2001) BDRip-AVC от MediaClub | D, P скачать через торрент бесплатно
  • Мажестик / The Majestic (2001) BDRip 720p by msltel | D, P, P2, A скачать через торрент бесплатно


    • Комментарии (0):

      Информация

      Информация

        Посетители, находящиеся в группе Гости, не могут оставлять комментарии в данной новости.

        ↓ Меню



        ↓ Опрос

        А Вы добавили сайт в закладки?
        Да
        Не


        Top 10 за неделю (Фильмы)