.
Авторизация | Регистрация
» » Убить гонца / Kill the Messenger (2014) HDRip-AVC | L2 торрент скачать бесплатно




    Убить гонца / Kill the Messenger (2014) HDRip-AVC | L2 торрент скачать бесплатно

    Опубликовал: Админ | Дата: 27-02-2015, 11:10 | Просмотров: 158


    Русское название:Убить гонца
    Русское название в мировом прокате:Kill the Messenger
    Создали в:2014
    Категория жанра:Триллер, драма, криминал, детектив, биография
    Главный режиссер:Майкл Куэста

    Актеры
    Джереми Реннер, Роберт Патрик, Роберт Пралго, Хаджи Голайтли, Тед Хукаби, Пас Вега, Юл Васкес, Оливер Плэтт, Энди Гарсиа, Майкл Шин, Джил Беллоуз, Рэй Лиотта, Мэри Элизабет Уинстэд, Лукас Хеджес, Розмари ДеУитт, Мэттью Линтц, Паркер Дуглас

    Сюжет фильма

    Репортер, собирая материал для статьи, попадает в нестандартную ситуацию: он находит секретные файлы ЦРУ, в которых четко прописано причастие госорганов к транспортировке кокаина в особо крупных размерах в Калифорнию. Несмотря на все неприятности, последующие за разоблачением, публикация выходит в одном из самых известных журналов США. Существование репортера становится нежелательным для всех, кто хоть как-то соприкасался с кокаиновым делом. После широкой огласки статьи убить журналиста просто так нельзя, ведь тогда правдивость материала станет очевидной, зато ведомство может обвинить репортера в другом…

    Снималось в:США, Bluegrass Films, The Combine
    Время просмотра:01:51:54
    Перевод текста:Двуголосый закадровый, любительский (R.A.I.M GUGU)
    Субтитры:Отсутствуют
    Качество фильма:HDRip-AVC
    Информация о видео:MPEG-4 AVC/H.264, ~2019 kb/s, 1024х426
    Информация о звуке 1:AC3, 2 каналов, 384 Кбит/сек | Русский
    Информация о звуке 2:AC3, 6 каналов, 384 Кбит/сек | Английский
    Сэмпл
    MI
    Формат : Matroska
    Версия формата : Version 4/Version 2
    Размер файла : 2,18 Гбайт
    Продолжительность : 1 ч. 51 м.
    Общий поток : 2787 Кбит/сек
    Название фильма : Ubitj.gonza.2014.HDRip-AVC Tellurian 1
    Дата кодирования : UTC 2015-01-29 10:35:48
    Программа кодирования : mkvmerge v7.2.0 (;On Every Street;) 64bit built on Sep 13 2014 15:52:10
    Библиотека кодирования : libebml v1.3.0 + libmatroska v1.4.1
    DURATION : 01:51:54.976000000
    NUMBER_OF_FRAMES : 209843
    NUMBER_OF_BYTES : 322318848
    _STATISTICS_WRITING_APP : mkvmerge v7.2.0 (;On Every Street;) 64bit built on Sep 13 2014 15:52:10
    _STATISTICS_WRITING_DATE_UTC : 2015-01-29 10:35:48
    _STATISTICS_TAGS : BPS DURATION NUMBER_OF_FRAMES NUMBER_OF_BYTES
    Видео
    Идентификатор : 1
    Формат : AVC
    Формат/Информация : Advanced Video Codec
    Профиль формата : High@L4.1
    Параметр CABAC формата : Да
    Параметр ReFrames формата : 8 кадров
    Идентификатор кодека : V_MPEG4/ISO/AVC
    Продолжительность : 1 ч. 51 м.
    Битрейт : 2019 Кбит/сек
    Ширина : 1024 пикселя
    Высота : 426 пикселей
    Соотношение сторон : 2,40:1
    Режим частоты кадров : Постоянный
    Частота кадров : 24,000 кадра/сек
    Цветовое пространство : YUV
    Субдискретизация насыщенности : 4:2:0
    Битовая глубина : 8 бит
    Тип развёртки : Прогрессивная
    Бит/(Пиксели*Кадры) : 0.193
    Размер потока : 1,54 Гбайт (70%)
    Библиотека кодирования : x264 core 142 r2431 ac76440
    Настройки программы : cabac=1/ref=8/deblock=1:-3:-3/analyse=0x3:0x133/me=umh/subme=11/psy=1/psy_rd=1.00:0.08/mixed_ref=1/me_range=32/chroma_me=1/trellis=2/8x8dct=1/cqm=0/deadzone=21,11/fast_pskip=0/chroma_qp_offset=-3/threads=6/lookahead_threads=1/sliced_threads=0/nr=0/decimate=0/interlaced=0/bluray_compat=0/constrained_intra=0/bframes=10/b_pyramid=2/b_adapt=2/b_bias=0/direct=3/weightb=1/open_gop=0/weightp=2/keyint=240/keyint_min=24/scenecut=40/intra_refresh=0/rc_lookahead=60/rc=2pass/mbtree=1/bitrate=2019/ratetol=1.0/qcomp=0.70/qpmin=0/qpmax=69/qpstep=4/cplxblur=20.0/qblur=0.5/vbv_maxrate=50000/vbv_bufsize=62500/nal_hrd=none/filler=0/ip_ratio=1.40/aq=1:0.80
    Default : Да
    Forced : Нет
    Аудио #1
    Идентификатор : 2
    Формат : AC-3
    Формат/Информация : Audio Coding 3
    Расширение режима : CM (complete main)
    Параметр Endianness формата : Big
    Идентификатор кодека : A_AC3
    Продолжительность : 1 ч. 51 м.
    Вид битрейта : Постоянный
    Битрейт : 384 Кбит/сек
    Каналы : 2 канала
    Расположение каналов : Front: L R
    Частота : 48,0 КГц
    Битовая глубина : 16 бит
    Метод сжатия : С потерями
    Размер потока : 307 Мбайт (14%)
    Язык : Russian
    Default : Да
    Forced : Нет
    Аудио #2
    Идентификатор : 3
    Формат : AC-3
    Формат/Информация : Audio Coding 3
    Расширение режима : CM (complete main)
    Параметр Endianness формата : Big
    Идентификатор кодека : A_AC3
    Продолжительность : 1 ч. 51 м.
    Вид битрейта : Постоянный
    Битрейт : 384 Кбит/сек
    Каналы : 6 каналов
    Расположение каналов : Front: L C R, Side: L R, LFE
    Частота : 48,0 КГц
    Битовая глубина : 16 бит
    Метод сжатия : С потерями
    Размер потока : 307 Мбайт (14%)
    Язык : English
    Default : Нет
    Forced : Нет
    Скриншоты

    Размер скачиваемого торрента: 2.18 GB (2339439475 Bytes)

    Убить гонца/Kill the Messenger (2014) HDRip-AVC | L2 торрент скачать бесплатно
    загрузка...
    Рейтинг →
     (голосов: 1, оценка 4/5, голосовать можно 1 раз )

    Другие торренты по теме:

  • Убить гонца (2014) торрент скачать бесплатно
  • Убить гонца / Kill the Messenger (2014) BDRemux 1080p от NovaLan скачать через торрент бесплатно
  • Убить гонца / Kill the Messenger (2014) BDRip 720p от Leonardo and Scarabey | L2 торрент скачать бесплатно
  • Убить гонца / Kill the Messenger (2014) BDRip 720p | Чистый звук скачать через торрент бесплатно
  • Убить гонца / Kill the Messenger (2014) HDRip | Лицензия скачать торрент бесплатно
  • Убить гонца / Kill the Messenger (2014) DVD5 | Лицензия скачать торрент бесплатно
  • Убить гонца / Kill the Messenger (2014) HDRip | Лицензия скачать торрент бесплатно
  • Убить гонца / Kill the Messenger (2014) BDRip-AVC | Лицензия скачать торрент бесплатно


    • Комментарии (0):

      Информация

      Информация

        Посетители, находящиеся в группе Гости, не могут оставлять комментарии в данной новости.

        ↓ Меню



        ↓ Опрос

        А Вы добавили сайт в закладки?
        Да
        Не


        Top 10 за неделю (Фильмы)