.
Авторизация | Регистрация
Хочешь лучшие торренты? Добавь свой email!
Добавить
» » Одинокий рейнджер / The Lone Ranger (2013) BDRip 720p | KinoGadget | iPad скачать через торрент бесплатно




    Одинокий рейнджер / The Lone Ranger (2013) BDRip 720p | KinoGadget | iPad скачать через торрент бесплатно

    Опубликовал: Админ | Дата: 27-02-2015, 11:10 | Просмотров: 120


    Создали в: 2013
    Снималось в: США
    Категория жанра: вестерн, приключения, боевик, комедия
    Время просмотра: 02:29:33
    Перевод текста: Дублированный
    Главный режиссер: Гор Вербински

    Актеры
    Джонни Депп, Хелена Бонем Картер, Арми Хаммер, Уильям Фихтнер, Том Уилкинсон, Бэрри Пеппер, Джеймс Бэдж Дэйл, Рут Уилсон, Мэйсон Кук, Мэтт О`Лири
    Описание: История блюстителя закона Джона Рида, который с помощью индейца Тонто стал легендарным мстителем в маске, стоящим на защите справедливости. Тонто с юмором и небылицами повествует о тех приключениях, которые пришлось пережить двум непохожим друг на друга героям, сведенным судьбой для того, чтобы вместе сражаться против общего врага. Им приходится противостоять жадности и коррупции во времена, когда появление первых железных дорог изменило представление о власти и могуществе в мире.

    Информация о видео кодек:MPEG-4 AVC
    Качество фильма:BDRip 720p
    Параметры Видео:1280x528, 23.976 fps; ~2 072 kbps avg
    Параметры Звука:48.0 KHz, AAC, ~165.00 kbps avg, 2ch
    Тип видео:mp4
    Релиз:
    Meta Tags


    MI
    General
    Complete name : E:Odinokij_rejndzher.2013.D.BDRip.720p_KinoGadget.mp4
    Format : MPEG-4
    Format profile : Base Media
    Codec ID : isom
    File size : 2.35 GiB
    Duration : 2h 29mn
    Overall bit rate mode : Variable
    Overall bit rate : 2 246 Kbps
    Movie name : Одинокий рейнджер
    Performer : Гор Вербински
    Genre : Action, Adventure, Western
    ContentType : Short Film
    Recorded date : 2013
    Encoded date : UTC 2015-01-30 20:05:04
    Tagged date : UTC 2015-01-31 07:42:00
    Cover : Yes
    ContentRating : mpaa|PG-13|300|
    LongDeion : История блюстителя закона Джона Рида, который с помощью индейца Тонто стал легендарным мстителем в маске, стоящим на защите справедливости. Тонто с юмором и небылицами повествует о тех приключениях, которые пришлось пережить двум непохожим друг на друга героям, сведенным судьбой для того, чтобы вместе сражаться против общего врага. Им приходится противостоять жадности и коррупции во времена, когда появление первых железных дорог изменило представление о власти и могуществе в мире.
    HDVideo : Yes
    Video
    ID : 1
    Format : AVC
    Format/Info : Advanced Video Codec
    Format profile : High@L4.1
    Format settings, CABAC : Yes
    Format settings, ReFrames : 10 frames
    Codec ID : avc1
    Codec ID/Info : Advanced Video Coding
    Duration : 2h 29mn
    Bit rate : 2 072 Kbps
    Maximum bit rate : 10.5 Mbps
    Width : 1 280 pixels
    Height : 528 pixels
    Display aspect ratio : 2.40:1
    Frame rate mode : Constant
    Frame rate : 23.976 fps
    Color space : YUV
    Chroma subsampling : 4:2:0
    Bit depth : 8 bits
    Scan type : Progressive
    Bits/(Pixel*Frame) : 0.128
    Stream size : 2.16 GiB (92%)
    Writing library : x264 core 144 r2525 40bb568
    Encoding settings : cabac=1/ref=10/deblock=1:-1:-1/analyse=0x3:0x133/me=umh/subme=11/psy=1/psy_rd=1.00:0.20/mixed_ref=1/me_range=24/chroma_me=1/trellis=2/8x8dct=1/cqm=0/deadzone=21,11/fast_pskip=1/chroma_qp_offset=-3/threads=3/lookahead_threads=1/sliced_threads=0/nr=0/decimate=1/interlaced=0/bluray_compat=0/constrained_intra=0/bframes=4/b_pyramid=2/b_adapt=2/b_bias=0/direct=3/weightb=1/open_gop=0/weightp=2/keyint=240/keyint_min=23/scenecut=40/intra_refresh=0/rc_lookahead=60/rc=crf/mbtree=1/crf=21.0/qcomp=0.60/qpmin=0/qpmax=69/qpstep=4/ip_ratio=1.40/aq=1:1.00
    Encoded date : UTC 2015-01-30 04:28:47
    Tagged date : UTC 2015-01-30 20:06:45
    Audio
    ID : 2
    Format : AAC
    Format/Info : Advanced Audio Codec
    Format profile : LC
    Codec ID : 40
    Duration : 2h 29mn
    Duration_FirstFrame : 64ms
    Bit rate mode : Variable
    Bit rate : 165 Kbps
    Maximum bit rate : 229 Kbps
    Channel count : 2 channels
    Channel positions : Front: L R
    Sampling rate : 48.0 KHz
    Compression mode : Lossy
    Stream size : 177 MiB (7%)
    Language : Russian
    Tagged date : UTC 2015-01-30 20:06:45

    Скриншоты


    Залил: KinoGadget
    Размер скачиваемого торрента: 2.35 GB (2518993098 Bytes)

    Одинокий рейнджер/The Lone Ranger (2013) BDRip 720p | KinoGadget | iPad скачать через торрент бесплатно
    загрузка...
    Рейтинг →
     (голосов: 1, оценка 5/5, голосовать можно 1 раз )

    Другие торренты по теме:

  • Одинокий рейнджер / The Lone Ranger (2013) HD-1080p | D | Трейлер
  • Одинокий рейнджер / The Lone Ranger (2013) BDRip-AVC от HELLYWOOD | Лицензия
  • Одинокий рейнджер / The Lone Ranger (2013) BDRip от HQ-ViDEO | Лицензия
  • Одинокий рейнджер / The Lone Ranger (2013) HDRip от Scarabey | D | Лицензия
  • Одинокий рейнджер / The Lone Ranger (2013) HDRip-AVC от ViRTUS | D
  • Одинокий рейнджер / The Lone Ranger (2013) BDRip-AVC | Лицензия
  • Одинокий рейнджер / The Lone Ranger (2013) BDRip от Youtracker
  • Одинокий рейнджер / The Lone Ranger (2013) BDRip 1080p | D | Лицензия


    • Комментарии (0):

      Информация

      Информация

        Посетители, находящиеся в группе Гости, не могут оставлять комментарии в данной новости.

        ↓ Меню



        ↓ Опрос

        А Вы добавили сайт в закладки?
        Да
        Не


        Top 10 за месяц (Фильмы)