.
Авторизация | Регистрация
Хочешь лучшие торренты? Добавь свой email!
Добавить
» » Ив Сен-Лоран / Yves Saint Laurent (2014) DVD5 от New-Team | Лицензия скачать через торрент бесплатно




    Ив Сен-Лоран / Yves Saint Laurent (2014) DVD5 от New-Team | Лицензия скачать через торрент бесплатно

    Опубликовал: Админ | Дата: 27-02-2015, 11:10 | Просмотров: 219


    Детально о кино
    Русское название:Ив Сен-Лоран
    Русское название в мировом прокате:Yves Saint Laurent
    Создали в:2014
    Категория жанра:драма, мелодрама, биография
    Главный режиссер:Джалиль Леспер/Jalil Lespert

    Актеры
    Пьер Нинэ, Гийом Гальенн, Шарлотта Ле Бон, Лаура Смет, Мари де Вильпен, Николай Кински, Рубен Алвес, Астрид Ветналл, Марианн Басле, Аделин О’Эрми

    Сюжет фильма

    Париж, январь 1958 года. Ив Сен Лоран в возрасте 21-го года неожиданно был призван управлять большими домами моды, которыми заведовал недавно умерший Кристиан Диор. Очень молодой помощник привлек всеобщее внимание своей первой же коллекцией одежды…

    Снималось в:Франция, Бельгия
    Киностудия:Canal+ fr, Centre National de la Cin?matographie (CNC), CinГ©france 1888, Cofinova 10, H?rodiade, IndГ©films 2, Orange Cin?ma S?ries, Procirep, SND, uFund, uMedia Family, Wy Productions
    Время просмотра:01:41:22
    Перевод текста:Профессиональный (многоголосый закадровый) Лицензия
    Файл
    Кодек для видео:MPEG2
    Качество фильма:DVD R5
    Информация о видео:PAL 16:9 (720x576(0.497)) MPEG Video, 25,000 кадр/сек, 5149 Кбит/сек
    Информация о звуке:Russian (Dolby AC3, 6 ch) 448 Кбит/сек, 48,0 КГц
    Субтитры:украинские
    DVDInfo
    Title:
    Size: 3.94 Gb ( 4 136 630 KBytes ) - DVD-5
    Enabled regions: 1, 2, 3, 4, 5, 6, 7, 8
    VTS_01 :
    Play Length: 01:41:22
    Video: PAL 16:9 (720x576) VBR, Auto PanScan
    Audio:
    Russian (Dolby AC3, 6 ch)
    Subtitles:
    Ukrainian
    VTS_02 :
    Play Length: 00:00:08
    Video: PAL 4:3 (720x576) VBR
    VTS_03 :
    Play Length: 00:00:11
    Video: PAL 16:9 (720x576) VBR, Auto PanScan
    Subtitles:
    English
    Menu Video:
    NTSC 4:3 (720x480) VBR
    Auto PanScan, Auto Letterboxed
    Menu Russian Language Unit :
    Root Menu
    Subpicture Menu
    Chapter (PTT) Menu

    MediaInfo
    Общее
    Полное имя : F:Новинки 2015Iv.Sen-Loran.2014.D.DVD5VIDEO_TSVTS_01_3.VOB
    Формат : MPEG-PS
    Размер файла : 1024 Мбайт
    Продолжительность : 25 м.
    Режим общего битрейта : Переменный
    Общий поток : 5710 Кбит/сек
    Видео
    Идентификатор : 224 (0xE0)
    Формат : MPEG Video
    Версия формата : Version 2
    Профиль формата : Main@Main
    Параметр BVOP формата : Да
    Параметр матрицы формата : Выборочная
    Параметр GOP формата : M=3, N=15
    Format_Settings_PictureStructure : Frame
    Продолжительность : 25 м.
    Вид битрейта : Переменный
    Битрейт : 5149 Кбит/сек
    Максимальный битрейт : 8000 Кбит/сек
    Ширина : 720 пикселей
    Высота : 576 пикселей
    Соотношение сторон : 16:9
    Частота кадров : 25,000 кадров/сек
    Стандарт вещания : PAL
    Цветовое пространство : YUV
    Субдискретизация насыщенности : 4:2:0
    Битовая глубина : 8 бит
    Тип развёртки : Чересстрочная
    Порядок развёртки : Верхнее поле первое
    Метод сжатия : С потерями
    Бит/(Пиксели*Кадры) : 0.497
    Временной код первого кадра : 00:53:40:14
    Оригинал временного кода : Group of pictures t_head
    Размер потока : 923 Мбайт (90%)
    Аудио
    Идентификатор : 189 (0xBD)-128 (0x80)
    Формат : AC-3
    Формат/Информация : Audio Coding 3
    Расширение режима : CM (complete main)
    Параметр Endianness формата : Big
    Режим смешивания : DVD-Video
    Продолжительность : 25 м.
    Вид битрейта : Постоянный
    Битрейт : 448 Кбит/сек
    Каналы : 6 каналов
    Расположение каналов : Front: L C R, Side: L R, LFE
    Частота : 48,0 КГц
    Битовая глубина : 16 бит
    Метод сжатия : С потерями
    Задержка видео : -800 мс.
    Размер потока : 80,3 Мбайт (8%)
    Текст
    Идентификатор : 189 (0xBD)-32 (0x20)
    Формат : RLE
    Формат/Информация : Run-length encoding
    Режим смешивания : DVD-Video
    Задержка видео : -200 мс.

    Скриншоты меню



    Скриншоты фильма



    Релиз подготовил:
    Залил: voovaz
    Размер скачиваемого торрента: 3.94 GB (4235909120 Bytes)

    Ив Сен-Лоран/Yves Saint Laurent (2014) DVD5 от New-Team | Лицензия скачать через торрент бесплатно
    загрузка...
    Рейтинг →
     (голосов: 1, оценка 4/5, голосовать можно 1 раз )

    Другие торренты по теме:



      Комментарии (0):

      Информация

      Информация

        Посетители, находящиеся в группе Гости, не могут оставлять комментарии в данной новости.

        ↓ Меню



        ↓ Опрос

        А Вы добавили сайт в закладки?
        Да
        Не


        Top 10 за месяц (Фильмы)