.
Авторизация | Регистрация
» » Гарри Поттер и Дары смерти: Часть 1 / Harry Potter and the Deathly Hallows: Part 1 (2010) BDRip-AVC | D скачать через торрент бесплатно




    Гарри Поттер и Дары смерти: Часть 1 / Harry Potter and the Deathly Hallows: Part 1 (2010) BDRip-AVC | D скачать через торрент бесплатно

    Опубликовал: Админ | Дата: 27-02-2015, 11:10 | Просмотров: 133


    Детально о кино
    Русское название:Гарри Поттер и Дары смерти: Часть 1
    Русское название в мировом прокате:Harry Potter and the Deathly Hallows: Part 1
    Создали в:2010
    Категория жанра:фэнтези, драма, детектив, приключения
    Главный режиссер:Дэвид Йэтс/David Yates

    Актеры
    Дэниэл Рэдклифф, Руперт Гринт, Эмма Уотсон, Том Фелтон, Бонни Райт, Алан Рикман, Рэйф Файнс, Хелена Бонем Картер, Майкл Гэмбон, Брендан Глисон

    Сюжет фильма

    Гарри Поттера ждёт самое страшное испытание в жизни — смертельная схватка с Волан-де-Мортом. Ждать помощи не от кого — Гарри одинок, как никогда… Друзья и враги Гарри предстают в совершенно неожиданном свете. Граница между Добром и Злом становится всё призрачнее…

    Снималось в:США, Великобритания
    Время просмотра:02:26:05
    Перевод текста:Профессиональный (полное дублирование)
    Файл
    Кодек для видео:h.264
    Качество фильма:BDRip-AVC
    Информация о видео:700 Кбит/с, 640x272, 23.976 кадр/с
    Информация о звуке:MP3, 48 kHz, 2 ch, ~120 kbps
    Субтитры:Нет
    MediaInfo

    Уникальный идентификатор : 180627585835182774365918815338677373156 (0x87E39B8DEAD1127E93F1A0B6E35F88E4)
    Полное имя : D:фильмы2сборникиГарри ПоттерHarry.Potter.and.the.Deathly.Hallows.Part.1.2010.BDRemux.1080p.AVC.DTS-HD.MA5.1.mkv
    Формат : Matroska
    Версия формата : Version 2
    Размер файла : 859 Мбайт
    Продолжительность : 2 ч. 26 м.
    Режим общего битрейта : Переменный
    Общий поток : 822 Кбит/сек
    Дата кодирования : UTC 2015-01-31 22:07:23
    Программа кодирования : mkvmerge v5.0.1 (;Es ist Sommer;) built on Nov 6 2011 16:23:40
    Библиотека кодирования : libebml v1.2.2 + libmatroska v1.3.0
    Видео
    Идентификатор : 1
    Формат : AVC
    Формат/Информация : Advanced Video Codec
    Профиль формата : High@L4.1
    Параметр CABAC формата : Да
    Параметр ReFrames формата : 11 кадров
    Идентификатор кодека : V_MPEG4/ISO/AVC
    Продолжительность : 2 ч. 26 м.
    Битрейт : 700 Кбит/сек
    Ширина : 640 пикселей
    Высота : 272 пикселя
    Соотношение сторон : 2,35:1
    Режим частоты кадров : Постоянный
    Частота кадров : 23,976 кадра/сек
    Цветовое пространство : YUV
    Субдискретизация насыщенности : 4:2:0
    Битовая глубина : 8 бит
    Тип развёртки : Прогрессивная
    Бит/(Пиксели*Кадры) : 0.168
    Размер потока : 717 Мбайт (83%)
    Библиотека кодирования : x264 core 119 r2106 07efeb4
    Настройки программы : cabac=1/ref=11/deblock=1:-2:-1/analyse=0x3:0x133/me=umh/subme=11/psy=1/psy_rd=1.00:0.10/mixed_ref=1/me_range=48/chroma_me=1/trellis=2/8x8dct=1/cqm=0/deadzone=21,11/fast_pskip=0/chroma_qp_offset=-6/threads=6/sliced_threads=0/nr=0/decimate=1/interlaced=0/bluray_compat=0/constrained_intra=0/bframes=14/b_pyramid=2/b_adapt=2/b_bias=0/direct=3/weightb=1/open_gop=0/weightp=1/keyint=250/keyint_min=23/scenecut=40/intra_refresh=0/rc_lookahead=80/rc=2pass/mbtree=1/bitrate=700/ratetol=1.0/qcomp=0.60/qpmin=0/qpmax=69/qpstep=4/cplxblur=20.0/qblur=0.5/ip_ratio=1.40/aq=1:1.00
    Default : Да
    Forced : Нет
    Аудио
    Идентификатор : 2
    Формат : MPEG Audio
    Версия формата : Version 1
    Профиль формата : Layer 3
    Режим : Joint stereo
    Расширение режима : MS Stereo
    Идентификатор кодека : A_MPEG/L3
    Идентификатор кодека/Подсказка : MP3
    Продолжительность : 2 ч. 26 м.
    Вид битрейта : Переменный
    Битрейт : 120 Кбит/сек
    Номинальный битрейт : 128 Кбит/сек
    Каналы : 2 канала
    Частота : 48,0 КГц
    Метод сжатия : С потерями
    Размер потока : 125 Мбайт (15%)
    Библиотека кодирования : L3.99r
    Настройки программы : -m j -V 4 -q 2 -lowpass 17 --abr 128
    Default : Да
    Forced : Нет


    Скриншоты



    Релиз подготовил:
    Размер скачиваемого торрента: 858.93 MB (900650859 Bytes)

    Гарри Поттер и Дары смерти: Часть 1/Harry Potter and the Deathly Hallows: Part 1 (2010) BDRip-AVC | D скачать через торрент бесплатно
    загрузка...
    Рейтинг →
     (голосов: 1, оценка 4/5, голосовать можно 1 раз )

    Другие торренты по теме:

  • Гарри Поттер: Антология / Harry Potter: Antology (2001-2011) BDRip 720p от R.G. GoldenShara торрент скачать бесплатно
  • Гарри Поттер и Белое Золото II / Harry Potter and the Deathly Hallows: Part 2 (2011 / 2012) BDRip торрент скачать бесплатно
  • Роулинг Джоан Кэтлин - Гарри Поттер. Книги 1-7 (2006-2011) MP3 торрент скачать бесплатно
  • Роулинг Джоан Кэтлин - Гарри Поттер. Книги 1-6 (2012) MP3 торрент скачать бесплатно
  • Гарри Поттер и Принц-полукровка / Harry Potter and the Half-Blood Prince (2009) HDRip от Scarabey | D торрент скачать бесплатно
  • Гарри Поттер и орден Феникса / Harry Potter and the Order of the Phoenix (2007) HDRip от Scarabey | D торрент скачать бесплатно
  • Гарри Поттер и кубок огня / Harry Potter and the Goblet of Fire (2005) HDRip от Scarabey | D торрент скачать бесплатно
  • Гарри Поттер и узник Азкабана / Harry Potter and the Prisoner of Azkaban (2004) HDRip от Scarabey | D торрент скачать бесплатно


    • Комментарии (0):

      Информация

      Информация

        Посетители, находящиеся в группе Гости, не могут оставлять комментарии в данной новости.

        ↓ Меню



        ↓ Опрос

        А Вы добавили сайт в закладки?
        Да
        Не


        Top 10 за неделю (Фильмы)