.
Авторизация | Регистрация
» » Боевик Джексон / Action Jackson (2014) WEB-DL 720p | L2 торрент скачать бесплатно




    Боевик Джексон / Action Jackson (2014) WEB-DL 720p | L2 торрент скачать бесплатно

    Опубликовал: Админ | Дата: 27-02-2015, 11:10 | Просмотров: 147


    Русское название в мировом прокате:Action Jackson
    название:Боевик Джексон
    Категория жанра:Комедия, боевик, драма, мюзикл
    Главный режиссёрр:Прабхудева
    Год:2014

    Актеры
    Аджай Девган, Сонакши Синха, Ями Гаутам, Кунаал Рой Капур, Аарон Брамфилд, Байрон Гибсон, Сунил Шетти, Роки Верма

    …Он говорит лишь раз- Второй раз не повторяет. А если повторит, то враг уже не в состоянии будет это услышать. Один его удар сокрушит тысячу противников, а одно его имя заставит дрожать землю под ногами бандитов и трепетать их трусливые сердца. И в делах сердечных ему равных нет. Он оставит на дороге самого Ромео. Под его чарами не устоит даже жестокая и хладнокровная сестричка отпетого бандита. Но только чем это обернётся...
    Снималось в:Индия
    Киностудия:Baba Films, Eros International
    Время просмотра:02:24:26
    Перевод текста:Любительский двухголосый - den904 DeadSno)
    Кодек для видео:MPEG-4 (AVC)
    Качество фильма:WEB-DL (720p)
    Информация о видео:1893 Кбит/с, 1280x720
    Информация о звуке:АС3, 2 ch, 192 Кбит/с
    Субтитры:Русские (на песни)

    Mediainfo:
    Общее
    Уникальный идентификатор : 229188691297224625464868987841854095151 (0xAC6C22E7BAF9075580D614133DB8BF2F)
    Полное имя : Боевик Джексон Action Jackson (2014) WEB-DL (720p)Action Jackson (2014) WEB-DL (720p).mkv
    Формат : Matroska
    Версия формата : Version 4/Version 2
    Размер файла : 2,08 Гбайт
    Продолжительность : 2 ч. 19 м.
    Общий поток : 2127 Кбит/сек
    Дата кодирования : UTC 2015-02-03 18:00:03
    Программа кодирования : mkvmerge v7.2.0 (;On Every Street;) 64bit built on Sep 13 2014 15:52:10
    Библиотека кодирования : libebml v1.3.0 + libmatroska v1.4.1
    DURATION : 02:19:49.984000000
    NUMBER_OF_FRAMES : 262187
    NUMBER_OF_BYTES : 201359616
    _STATISTICS_WRITING_APP : mkvmerge v7.2.0 (;On Every Street;) 64bit built on Sep 13 2014 15:52:10
    _STATISTICS_WRITING_DATE_UTC : 2015-02-03 18:00:03
    _STATISTICS_TAGS : BPS DURATION NUMBER_OF_FRAMES NUMBER_OF_BYTES
    Видео
    Идентификатор : 1
    Формат : AVC
    Формат/Информация : Advanced Video Codec
    Профиль формата : Main@L3.1
    Параметр CABAC формата : Да
    Параметр ReFrames формата : 1 кадр
    Параметр GOP формата : M=1, N=25
    Идентификатор кодека : V_MPEG4/ISO/AVC
    Продолжительность : 2 ч. 19 м.
    Вид битрейта : Постоянный
    Битрейт : 1893 Кбит/сек
    Номинальный битрейт : 2000 Кбит/сек
    Ширина : 1280 пикселей
    Высота : 720 пикселей
    Соотношение сторон : 16:9
    Режим частоты кадров : Постоянный
    Частота кадров : 25,000 кадров/сек
    Цветовое пространство : YUV
    Субдискретизация насыщенности : 4:2:0
    Битовая глубина : 8 бит
    Тип развёртки : Прогрессивная
    Бит/(Пиксели*Кадры) : 0.082
    Размер потока : 1,85 Гбайт (89%)
    Default : Да
    Forced : Нет
    Аудио
    Идентификатор : 3
    Формат : AC-3
    Формат/Информация : Audio Coding 3
    Расширение режима : CM (complete main)
    Параметр Endianness формата : Big
    Идентификатор кодека : A_AC3
    Продолжительность : 2 ч. 19 м.
    Вид битрейта : Постоянный
    Битрейт : 192 Кбит/сек
    Каналы : 2 канала
    Расположение каналов : Front: L R
    Частота : 48,0 КГц
    Битовая глубина : 16 бит
    Метод сжатия : С потерями
    Размер потока : 192 Мбайт (9%)
    Default : Да
    Forced : Нет
    Текст
    Идентификатор : 2
    Формат : UTF-8
    Идентификатор кодека : S_TEXT/UTF8
    Идентификатор кодека/Информация : UTF-8 Plain Text
    Default : Да
    Forced : Нет

    Залил: Spirit Summer
    Размер скачиваемого торрента: 2.08 GB (2231092407 Bytes)

    Боевик Джексон/Action Jackson (2014) WEB-DL 720p | L2 торрент скачать бесплатно
    загрузка...
    Рейтинг →
     (голосов: 1, оценка 4/5, голосовать можно 1 раз )

    Другие торренты по теме:

  • Боевик Джексон / Джексон по кличке Мотор / Action Jackson (1988) BDRip от HQCLUB скачать через торрент бесплатно
  • Боевик Джексон / Action Jackson (1988) BDRip-AVC | iPad | D скачать через торрент бесплатно
  • Боевик Джексон / Action Jackson скачать через торрент бесплатно
  • Боевик Джексон / Action Jackson (1988) BDRip 720p скачать через торрент бесплатно
  • Боевик Джексон / Action Jackson (2014) WEB-DLRip | L2 торрент скачать бесплатно
  • Боевик Джексон (Джексон мотор) / Action Jackson / 1988 / ДБ, ПМ, АП (Михалев) / Blu-Ray (1080p) скачать торрент бесплатно
  • Боевик Джексон / Джексон мотор / Action Jackson (1988) BDRip-AVC от 0ptimus | D, P, A скачать торрент бесплатно


    • Комментарии (0):

      Информация

      Информация

        Посетители, находящиеся в группе Гости, не могут оставлять комментарии в данной новости.

        ↓ Меню



        ↓ Опрос

        А Вы добавили сайт в закладки?
        Да
        Не


        Top 10 за неделю (Фильмы)