.
Авторизация | Регистрация
» » Боевик Джексон / Action Jackson (2014) WEB-DLRip | L2 торрент скачать бесплатно




    Боевик Джексон / Action Jackson (2014) WEB-DLRip | L2 торрент скачать бесплатно

    Опубликовал: Админ | Дата: 27-02-2015, 11:10 | Просмотров: 217


    Русское название в мировом прокате:Action Jackson
    название:Боевик Джексон
    Категория жанра:Комедия, боевик, драма, мюзикл
    Главный режиссёрр:Прабхудева
    Год:2014

    Актеры
    Аджай Девган, Сонакши Синха, Ями Гаутам, Кунаал Рой Капур, Аарон Брамфилд, Байрон Гибсон, Сунил Шетти, Роки Верма

    …Он говорит лишь раз- Второй раз не повторяет. А если повторит, то враг уже не в состоянии будет это услышать. Один его удар сокрушит тысячу противников, а одно его имя заставит дрожать землю под ногами бандитов и трепетать их трусливые сердца. И в делах сердечных ему равных нет. Он оставит на дороге самого Ромео. Под его чарами не устоит даже жестокая и хладнокровная сестричка отпетого бандита. Но только чем это обернётся...
    Снималось в:Индия
    Киностудия:Baba Films, Eros International
    Время просмотра:02:24:26
    Перевод текста:Любительский двухголосый - den904 DeadSno)
    Кодек для видео:XviD
    Качество фильма:WEB-DLRip
    Информация о видео:1354 Кбит/с, 704x304
    Информация о звуке:MP3, 2 ch, 128 Кбит/с
    Субтитры:Отсутствуют

    Mediainfo:
    Общее
    Полное имя : Боевик Джексон Action Jackson (2014)WEB-DLRipBoevik.Dzhekson.2014.WEB-DLRip.XviD.avi
    Формат : AVI
    Формат/Информация : Audio Video Interleave
    Размер файла : 1,46 Гбайт
    Продолжительность : 2 ч. 19 м.
    Общий поток : 1492 Кбит/сек
    Название фильма : Action.Jackson.2014.WEB-DLRip.XviD.Kolobok.soso4eg
    Режиссёр : soso4eg
    Программа кодирования : VirtualDubMod 1.5.10.3 | www.virtualdub-fr.org || (build 2550/release)
    Формат оригинала/Имя : Hindi
    Правообладатель :
    Примечание :
    Видео
    Идентификатор : 0
    Формат : MPEG-4 Visual
    Профиль формата : Advanced Simple@L5
    Параметр BVOP формата : 2
    Параметр QPel формата : Нет
    Параметр GMC формата : Без точки перехода
    Параметр матрицы формата : Default (MPEG)
    Идентификатор кодека : XVID
    Идентификатор кодека/Подсказка : XviD
    Продолжительность : 2 ч. 19 м.
    Битрейт : 1354 Кбит/сек
    Ширина : 704 пикселя
    Высота : 304 пикселя
    Соотношение сторон : 2,35:1
    Частота кадров : 25,000 кадров/сек
    Цветовое пространство : YUV
    Субдискретизация насыщенности : 4:2:0
    Битовая глубина : 8 бит
    Тип развёртки : Прогрессивная
    Метод сжатия : С потерями
    Бит/(Пиксели*Кадры) : 0.253
    Размер потока : 1,32 Гбайт (91%)
    Библиотека кодирования : XviD 1.2.1 (UTC 2008-12-04)
    Аудио
    Идентификатор : 1
    Формат : MPEG Audio
    Версия формата : Version 1
    Профиль формата : Layer 3
    Режим : Joint stereo
    Расширение режима : MS Stereo
    Идентификатор кодека : 55
    Идентификатор кодека/Подсказка : MP3
    Продолжительность : 2 ч. 19 м.
    Вид битрейта : Постоянный
    Битрейт : 128 Кбит/сек
    Каналы : 2 канала
    Частота : 48,0 КГц
    Метод сжатия : С потерями
    Размер потока : 128 Мбайт (9%)
    Выравнивание : Соединение по промежуткам
    Продолжительность промежутка : 40 мс. (1,00 видеокадр)
    Время предзагрузки промежутка : 504 мс.

    Залил: Spirit Summer
    Размер скачиваемого торрента: 1.46 GB (1564837888 Bytes)

    Боевик Джексон/Action Jackson (2014) WEB-DLRip | L2 торрент скачать бесплатно
    загрузка...
    Рейтинг →
     (голосов: 1, оценка 4/5, голосовать можно 1 раз )

    Другие торренты по теме:

  • Боевик Джексон / Джексон по кличке Мотор / Action Jackson (1988) BDRip от HQCLUB скачать через торрент бесплатно
  • Боевик Джексон (Джексон мотор) / Action Jackson / 1988 / ДБ, ПМ, АП (Михалев) / Blu-Ray (1080p) скачать торрент бесплатно
  • Боевик Джексон / Джексон мотор / Action Jackson (1988) BDRip-AVC от 0ptimus | D, P, A скачать торрент бесплатно
  • Боевик Джексон / Action Jackson (1988) BDRip-AVC | iPad | D скачать через торрент бесплатно
  • Боевик Джексон / Action Jackson скачать через торрент бесплатно
  • Боевик Джексон / Action Jackson (1988) BDRip 720p скачать через торрент бесплатно
  • Боевик Джексон / Action Jackson (2014) WEB-DL 720p | L2 торрент скачать бесплатно


    • Комментарии (0):

      Информация

      Информация

        Посетители, находящиеся в группе Гости, не могут оставлять комментарии в данной новости.

        ↓ Меню



        ↓ Опрос

        А Вы добавили сайт в закладки?
        Да
        Не


        Top 10 за неделю (Фильмы)