.
Авторизация | Регистрация
» » Жена богача / The Rich Mans Wife (1996) WEB-DLRip от 0ptimus | P торрент скачать бесплатно




    Жена богача / The Rich Mans Wife (1996) WEB-DLRip от 0ptimus | P торрент скачать бесплатно

    Опубликовал: Админ | Дата: 27-02-2015, 11:10 | Просмотров: 203


    Жена богача
    | The Rich Man;s Wife |

    Детально о кино
    Русское название:Жена богача
    Русское название в мировом прокате:The Rich Man;s Wife
    Создали в:1996
    Категория жанра:Триллер, детектив
    Главный режиссер:Эми Холден Джонс

    Сюжет фильма

    Холли Берри, Питер Грин, Клайв Оуэн, Фрэнки Фэйзон, Чарльз Хэллахан, Аллан Рич, Клеа Льюис, Кристофер МакДональд, Лойда Рамос, Уильям Кроссетт

    Снималось в:США
    Киностудия:Caravan Pictures, Hollywood Pictures
    Время просмотра:01:34:48
    Перевод текста:Профессиональный многоголосый
    Файл
    Кодек для видео:XviD
    Качество фильма:WEB-DLRip
    Информация о видео:1592 Кбит/с, 704x400, 23.976 кадр/с
    Информация о звуке:
    • №1: Русский (АС3, 2 ch, 192 Кбит/с) Профессиональный многоголосый взят с DVD
    • №2: Английский (АС3, 6 ch, 384 Кбит/с)
    MediaInfo

    Полное имя : The.Rich.Man-s.Wife.1996.XviD.WEB-DLRip.0ptimus.avi
    Формат : AVI
    Формат/Информация : Audio Video Interleave
    Размер файла : 1,45 Гбайт
    Продолжительность : 1 ч. 34 м.
    Общий поток : 2182 Кбит/сек
    Название фильма : Жена богача | The Rich Man;s Wife 1996
    Жанр : Thriller, Detective
    Программа кодирования : VirtualDubMod 1.5.10.2 (build 2540/release)
    Библиотека кодирования : VirtualDubMod build 2540/release
    Формат оригинала/Имя : Movie
    Видео
    Идентификатор : 0
    Формат : MPEG-4 Visual
    Профиль формата : Advanced Simple@L5
    Параметр BVOP формата : 1
    Параметр QPel формата : Нет
    Параметр GMC формата : Без точки перехода
    Параметр матрицы формата : Выборочная
    Идентификатор кодека : XVID
    Идентификатор кодека/Подсказка : XviD
    Продолжительность : 1 ч. 34 м.
    Битрейт : 1592 Кбит/сек
    Ширина : 704 пикселя
    Высота : 400 пикселей
    Соотношение сторон : 16:9
    Частота кадров : 23,976 кадра/сек
    Цветовое пространство : YUV
    Субдискретизация насыщенности : 4:2:0
    Битовая глубина : 8 бит
    Тип развёртки : Прогрессивная
    Метод сжатия : С потерями
    Бит/(Пиксели*Кадры) : 0.236
    Размер потока : 1,05 Гбайт (73%)
    Библиотека кодирования : XviD 64
    Аудио #1
    Идентификатор : 1
    Формат : AC-3
    Формат/Информация : Audio Coding 3
    Расширение режима : CM (complete main)
    Параметр Endianness формата : Big
    Идентификатор кодека : 2000
    Продолжительность : 1 ч. 34 м.
    Вид битрейта : Постоянный
    Битрейт : 192 Кбит/сек
    Каналы : 2 канала
    Расположение каналов : Front: L R
    Частота : 48,0 КГц
    Битовая глубина : 16 бит
    Метод сжатия : С потерями
    Размер потока : 130 Мбайт (9%)
    Выравнивание : Разделение по промежуткам
    Продолжительность промежутка : 42 мс. (1,00 видеокадр)
    Время предзагрузки промежутка : 500 мс.
    Заголовок : MVO AC3 2.0 @ 192 kbps
    Аудио #2
    Идентификатор : 2
    Формат : AC-3
    Формат/Информация : Audio Coding 3
    Расширение режима : CM (complete main)
    Параметр Endianness формата : Big
    Идентификатор кодека : 2000
    Продолжительность : 1 ч. 34 м.
    Вид битрейта : Постоянный
    Битрейт : 384 Кбит/сек
    Каналы : 6 каналов
    Расположение каналов : Front: L C R, Side: L R, LFE
    Частота : 48,0 КГц
    Битовая глубина : 16 бит
    Метод сжатия : С потерями
    Размер потока : 260 Мбайт (18%)
    Выравнивание : Разделение по промежуткам
    Продолжительность промежутка : 42 мс. (1,00 видеокадр)
    Время предзагрузки промежутка : 500 мс.
    Заголовок : eng AC3 5.1 @ 384 kbps
    Скриншоты



    Релиз подготовил:
    Залил: 0ptimus
    Размер скачиваемого торрента: 1.45 GB (1551935488 Bytes)

    Жена богача/The Rich Mans Wife (1996) WEB-DLRip от 0ptimus | P торрент скачать бесплатно
    загрузка...
    Рейтинг →
     (голосов: 1, оценка 4/5, голосовать можно 1 раз )

    Другие торренты по теме:

  • Армейские жены / Army Wives (2008) DVDRip торрент скачать бесплатно
  • Хорошая жена / The Good Wife (2012) WEB-DL 720p | NewStudio торрент скачать бесплатно
  • Янина Познянская - Как деловой женщине стать счастливой женой (2012) PDF торрент скачать бесплатно
  • Жена Сталина (2006) DVDRip-AVC от Тorrent-Хzona торрент скачать бесплатно
  • Кажется, я люблю свою жену / I Think I Love My Wife (2007) DVDRip-AVC от Youtracker | P торрент скачать бесплатно
  • Моя Жена Маэстро Азартных Игр / My Wife is a Gambling Maestro (2008) DVDRip торрент скачать бесплатно
  • Папа женится / Papa si eni (1936) TVRip | A торрент скачать бесплатно
  • Женя Ка Поник (Синтетика) - Ниже нуля (2013) MP3 торрент скачать бесплатно


    • Комментарии (0):

      Информация

      Информация

        Посетители, находящиеся в группе Гости, не могут оставлять комментарии в данной новости.

        ↓ Меню



        ↓ Опрос

        А Вы добавили сайт в закладки?
        Да
        Не


        Top 10 за неделю (Фильмы)