.
Авторизация | Регистрация
Хочешь лучшие торренты? Добавь свой email!
Добавить
» » Последний киносеанс / The Last Picture Show (1971) BDRip-AVC | Hi10P торрент скачать бесплатно




    Последний киносеанс / The Last Picture Show (1971) BDRip-AVC | Hi10P торрент скачать бесплатно

    Опубликовал: Админ | Дата: 27-02-2015, 11:10 | Просмотров: 121


    Снималось в: США
    Категория жанра: драма
    Создали в: 1971
    Время просмотра: 02:06:35
    Перевод текста: Профессиональный (двухголосый закадровый)
    Субтитры подготовлены: русские, английские
    Оригинальная аудиодорожка: английский
    Главный режиссер: Питер Богданович

    Актеры
    Тимоти Боттомс, Джефф Бриджес, Сибилл Шепард, Бен Джонсон, Клорис Личмен, Эллен Бёрстин, Айлин Бреннан, Клу Гулагер, Сэм Боттомс, Рэнди Куэйд
    Описание (изрецензиина КиноПоиске): 1952 год, Анарина. Крошечный, обдуваемый жаркими ветрами пустыни городок где-то на юге Техаса. Люди там живут в такой глуши, что кроме старого кинотеатра и бильярдной им больше некуда податься. Выполняя однообразную работу, взрослые обитатели городка давно смирились с бесцельностью своего существования в этом бренном мире. Мужчины часами просиживают под навесами, лениво потягивая прохладное пивко, женщины, обречённые на служение домашнему очагу, коротают время за безобидными интрижками. День сменяется ночью, лето — зимой. Ничего не происходит и, кажется, что так будет всегда. Но лишь на первый взгляд…
    События фильма развиваются вокруг Дуэйна и Сонни — игроков местной футбольной команды, без пяти минут выпускников средней школы. Друзья пытаются бежать от тоски маленького городка. Они томятся от безделья, ходят с девчонками в кино, дерутся и мирятся. Они мечтают о чем-то большем, чем пустота и бездуховность захолустья. Это их последние минуты молодости. Взрослая жизнь оказывается куда ближе, чем они могли себе представить.

    Качество фильма видео: BDRip-AVC
    Тип видео видео: MKV
    Информация о видео: AVCHi10P, 1024x552, 1.85:1, 23.976 fps, 3 960 Kbps
    Информация о звуке: Russian AС3 2ch 48kHz 224Kbps | DVO
    Информация о звуке 2: English AС3 1ch 48kHz 224Kbps | Original
    Тип видео субтитров: softsub (SRT)
    MediaInfo

    General
    Unique ID : 218125054924072799476773851821194410274 (0xA4195B8475E95800A137EE54DA64F922)
    Complete name : D:TorrentПоследний киносеанс.mkv
    Format : Matroska
    Format version : Version 4/Version 2
    File size : 3.90 GiB
    Duration : 2h 6mn
    Overall bit rate : 4 409 Kbps
    Encoded date : UTC 2015-02-12 09:24:49
    Writing application : mkvmerge v7.6.0 (;Garden of Dreams;) 64bit built on Feb 8 2015 13:04:34
    Writing library : libebml v1.3.1 + libmatroska v1.4.2
    Video
    ID : 1
    Format : AVC
    Format/Info : Advanced Video Codec
    Format profile : High 10@L4.1
    Format settings, CABAC : Yes
    Format settings, ReFrames : 16 frames
    Codec ID : V_MPEG4/ISO/AVC
    Duration : 2h 6mn
    Bit rate : 3 960 Kbps
    Width : 1 024 pixels
    Height : 552 pixels
    Display aspect ratio : 1.85:1
    Frame rate mode : Constant
    Frame rate : 23.976 fps
    Color space : YUV
    Chroma subsampling : 4:2:0
    Bit depth : 10 bits
    Scan type : Progressive
    Bits/(Pixel*Frame) : 0.292
    Stream size : 3.42 GiB (88%)
    Writing library : x264_10 - core 144 r2525M 40bb568
    Encoding settings : cabac=1/ref=16/deblock=1:-2:-2/analyse=0x3:0x133/me=tesa/subme=11/psy=1/psy_rd=1,05:0,25/mixed_ref=1/me_range=24/chroma_me=1/trellis=2/8x8dct=1/cqm=0/deadzone=6,6/fast_pskip=0/chroma_qp_offset=-4/threads=14/lookahead_threads=3/sliced_threads=0/nr=0/decimate=0/interlaced=0/bluray_compat=0/constrained_intra=0/bframes=16/b_pyramid=2/b_adapt=2/b_bias=0/direct=3/weightb=1/open_gop=0/weightp=2/keyint=230/keyint_min=23/scenecut=40/intra_refresh=0/rc_lookahead=60/rc=2pass/mbtree=1/bitrate=3960/ratetol=1,0/qcomp=0,80/qpmin=3/qpmax=69/qpstep=4/cplxblur=20,0/qblur=0,5/ip_ratio=1,10/aq=2:0,50
    Default : Yes
    Forced : No
    Color primaries : BT.709
    Transfer characteristics : BT.709
    Matrix coefficients : BT.709
    Color range : Limited
    Audio #1
    ID : 2
    Format : AC-3
    Format/Info : Audio Coding 3
    Mode extension : CM (complete main)
    Format settings, Endianness : Big
    Codec ID : A_AC3
    Duration : 2h 6mn
    Bit rate mode : Constant
    Bit rate : 224 Kbps
    Channel(s) : 2 channels
    Channel positions : Front: L R
    Sampling rate : 48.0 KHz
    Bit depth : 16 bits
    Compression mode : Lossy
    Delay relative to video : -83ms
    Stream size : 203 MiB (5%)
    Title : DVO
    Language : Russian
    Default : Yes
    Forced : No
    Audio #2
    ID : 3
    Format : AC-3
    Format/Info : Audio Coding 3
    Mode extension : CM (complete main)
    Format settings, Endianness : Big
    Codec ID : A_AC3
    Duration : 2h 6mn
    Bit rate mode : Constant
    Bit rate : 224 Kbps
    Channel(s) : 1 channel
    Channel positions : Front: C
    Sampling rate : 48.0 KHz
    Bit depth : 16 bits
    Compression mode : Lossy
    Delay relative to video : -83ms
    Stream size : 203 MiB (5%)
    Language : English
    Default : No
    Forced : No
    Text #1
    ID : 4
    Format : UTF-8
    Codec ID : S_TEXT/UTF8
    Codec ID/Info : UTF-8 Plain Text
    Language : Russian
    Default : No
    Forced : No
    Text #2
    ID : 5
    Format : UTF-8
    Codec ID : S_TEXT/UTF8
    Codec ID/Info : UTF-8 Plain Text
    Language : English
    Default : No
    Forced : No
    Скриншот c названием фильма


    Скриншоты



    Размер скачиваемого торрента: 3.90 GB (4185562941 Bytes)

    Последний киносеанс/The Last Picture Show (1971) BDRip-AVC | Hi10P торрент скачать бесплатно
    загрузка...
    Рейтинг →
     (голосов: 1, оценка 4/5, голосовать можно 1 раз )

    Другие торренты по теме:

  • Последний киносеанс / The Last Picture Show (1971) BDRip от HQCLUB


    • Комментарии (0):

      Информация

      Информация

        Посетители, находящиеся в группе Гости, не могут оставлять комментарии в данной новости.

        ↓ Меню



        ↓ Опрос

        А Вы добавили сайт в закладки?
        Да
        Не


        Top 10 за месяц (Фильмы)