.
Авторизация | Регистрация
Хочешь лучшие торренты? Добавь свой email!
Добавить




Левиафан (2014) BDRip от ExKinoRay торрент скачать бесплатно

Опубликовал: Админ | Дата: 27-02-2015, 11:10 | Просмотров: 119


Детально о кино
Русское название:Левиафан
Создали в:2014
Категория жанра:Драма
Главный режиссер:Андрей Звягинцев

Актеры
Алексей Серебряков, Елена Лядова, Владимир Вдовиченков, Роман Мадянов, Анна Уколова, Алексей Розин, Сергей Походаев, Валерий Гришко, Сергей Бачурский, Платон Каменев

Сюжет фильма

Главный герой, Николай, живёт в маленьком городке близ Баренцева моря, в хижине на берегу небольшой бухты, куда порой заплывают киты. Когда продажный мэр города пытается конфисковать почти всё имущество Николая — дом, автомастерскую и его собственные земли — главный герой прибегает к помощи старого друга по армии, ныне уважаемого адвоката, Дмитрия, который определяет единственный способ борьбы с политиком — найти на него убойный компромат.

Снималось в:Россия
Киностудия:Нон-стоп Продакшн
Время просмотра:02:21:27
Перевод текста:Оригинал
Файл
Кодек для видео:XviD
Качество фильма:BDRip(Blu-ray FRE)
Информация о видео:720x304 (2,35:1), 24,000 fps, XviD 73 ~1282 kbps avg, 0.244 bit/pixel
Информация о звуке:AC3, 2 ch, 192 Кбит/с
Субтитры:Отсутствуют
MI
Общее
Полное имя : D:ВидеоLeviathan.2014.BDRip by Vovan366(ExKinoRay).avi
Формат : AVI
Формат/Информация : Audio Video Interleave
Размер файла : 1,47 Гбайт
Продолжительность : 2 ч. 21 м.
Общий поток : 1483 Кбит/сек
Программа кодирования : VirtualDubMod 1.5.10.3 | www.virtualdub-fr.org || (build 2550/release)
Библиотека кодирования : VirtualDubMod build 2550/release
Видео
Идентификатор : 0
Формат : MPEG-4 Visual
Профиль формата : Advanced Simple@L5
Параметр BVOP формата : 2
Параметр QPel формата : Нет
Параметр GMC формата : Без точки перехода
Параметр матрицы формата : Выборочная
Идентификатор кодека : XVID
Идентификатор кодека/Подсказка : XviD
Продолжительность : 2 ч. 21 м.
Битрейт : 1282 Кбит/сек
Ширина : 720 пикселей
Высота : 304 пикселя
Соотношение сторон : 2,35:1
Частота кадров : 24,000 кадра/сек
Цветовое пространство : YUV
Субдискретизация насыщенности : 4:2:0
Битовая глубина : 8 бит
Тип развёртки : Прогрессивная
Метод сжатия : С потерями
Бит/(Пиксели*Кадры) : 0.244
Размер потока : 1,27 Гбайт (86%)
Библиотека кодирования : XviD 73
Аудио
Идентификатор : 1
Формат : AC-3
Формат/Информация : Audio Coding 3
Расширение режима : CM (complete main)
Параметр Endianness формата : Big
Идентификатор кодека : 2000
Продолжительность : 2 ч. 21 м.
Вид битрейта : Постоянный
Битрейт : 192 Кбит/сек
Каналы : 2 канала
Расположение каналов : Front: L R
Частота : 48,0 КГц
Битовая глубина : 16 бит
Метод сжатия : С потерями
Размер потока : 194 Мбайт (13%)
Выравнивание : Разделение по промежуткам
Продолжительность промежутка : 42 мс. (1,00 видеокадр)
Время предзагрузки промежутка : 500 мс.
Скриншоты



Релиз подготовил:
Rip by:Vovan366
Залил: Wazzzup RK
Размер скачиваемого торрента: 1.47 GB (1573122048 Bytes)

Левиафан (2014) BDRip от ExKinoRay торрент скачать бесплатно
загрузка...
Рейтинг →
 (голосов: 1, оценка 3/5, голосовать можно 1 раз )

Другие торренты по теме:

  • Левиафан / Leviathan (1989) HDTVRip | A
  • Неуязвимая Левиафан / Zettai Bouei Leviathan (2013) HDTV 720p | L
  • Неуязвимая Левиафан / Zettai Bouei Leviathan (2013) HDTV 720p | L
  • Левиафан: Последний День Декады (2013) PC | Demo
  • Левиафан / Leviathan (1989) BDRip от Rulya74 | P. A скачать через торрент бесплатно
  • Левиафан / Leviathan (1989) BDRip 1080p | P, A
  • Левиафан
  • Левиафан (2014) WEB-DLRip | iTunes скачать через торрент бесплатно


    • Комментарии (0):

      Информация

      Информация

        Посетители, находящиеся в группе Гости, не могут оставлять комментарии в данной новости.

        ↓ Меню



        ↓ Опрос

        А Вы добавили сайт в закладки?
        Да
        Не


        Top 10 за месяц (Фильмы)