.
Авторизация | Регистрация
Хочешь лучшие торренты? Добавь свой email!
Добавить
» » Зодиак: Предвестия апокалипсиса / Zodiac: Signs of the Apocalypse (2014) HDRip-AVC | P скачать через торрент бесплатно


    Зодиак: Предвестия апокалипсиса / Zodiac: Signs of the Apocalypse (2014) HDRip-AVC | P скачать через торрент бесплатно

    Опубликовал: Админ | Дата: 27-02-2015, 11:10 | Просмотров: 159


    Детально о кино
    Русское название:Зодиак: Предвестия апокалипсиса
    Русское название в мировом прокате:Zodiac: Signs of the Apocalypse
    Создали в:2014
    Категория жанра:фантастика
    Главный режиссер:В.Д. Хоган/W.D. Hogan

    Актеры
    Кристофер Ллойд, Джоэл Гретш, Рейли Долмэн, Андреа Брукс, Эмили Холмс, Аарон Дуглас, Бен Коттон, Дуглас Чэпман, Расселл Робертс

    Сюжет фильма

    Хранитель музея получает астрологическую скрижаль из слоновой кости 2000-летней давности, не зная о том, что она способна уничтожить человечество.

    Снималось в:Канада
    Киностудия:Zodiac Pictures
    Время просмотра:01:29:47
    Перевод текста:Профессиональный (многоголосый закадровый)
    Файл
    Кодек для видео:MPEG-4 AVC (MKV)
    Качество фильма:HDRip-AVC
    Информация о видео:AVC, 1024x576, 2037 Kbps
    Информация о звуке:Rus: AC3, 192 kbps (2 ch), Eng: AC3, 6 ch, 512 kbps (6 ch)
    Субтитры:нет
    Семпл
    Скриншоты
    MediaInfo
    General
    Unique ID : 200622345903422878012262367071537998721 (0x96EE755659DABD159FACE88D83382B81)
    Complete name : G:ДИСК 2?1.ФИЛЬМЫЗодиак Предвестия апокалипсиса Zodiac Signs of the Apocalypse (2014)Zodiak.P.a.2014.P.HDRip-AVC.mkv
    Format : Matroska
    Format version : Version 4/Version 2
    File size : 1.75 GiB
    Duration : 1h 29mn
    Overall bit rate : 2 796 Kbps
    Encoded date : UTC 2015-02-13 04:17:55
    Writing application : mkvmerge v7.5.0 (;Glass Culture;) 64bit built on Jan 4 2015 16:48:44
    Writing library : libebml v1.3.1 + libmatroska v1.4.2
    DURATION : 01:29:47.840000000
    NUMBER_OF_FRAMES : 168370
    NUMBER_OF_BYTES : 344821760
    _STATISTICS_WRITING_APP : mkvmerge v7.5.0 (;Glass Culture;) 64bit built on Jan 4 2015 16:48:44
    _STATISTICS_WRITING_DATE_UTC : 2015-02-13 04:17:55
    _STATISTICS_TAGS : BPS DURATION NUMBER_OF_FRAMES NUMBER_OF_BYTES
    Video
    ID : 1
    Format : AVC
    Format/Info : Advanced Video Codec
    Format profile : Main@L4.1
    Format settings, CABAC : Yes
    Format settings, ReFrames : 8 frames
    Codec ID : V_MPEG4/ISO/AVC
    Duration : 1h 29mn
    Bit rate : 2 037 Kbps
    Width : 1 024 pixels
    Height : 576 pixels
    Display aspect ratio : 16:9
    Frame rate mode : Constant
    Frame rate : 23.976 fps
    Color space : YUV
    Chroma subsampling : 4:2:0
    Bit depth : 8 bits
    Scan type : Progressive
    Bits/(Pixel*Frame) : 0.144
    Stream size : 1.28 GiB (73%)
    Title : Release by АРХАНГЕЛ
    Language : English
    Default : Yes
    Forced : No
    Audio #1
    ID : 2
    Format : AC-3
    Format/Info : Audio Coding 3
    Mode extension : CM (complete main)
    Format settings, Endianness : Big
    Codec ID : A_AC3
    Duration : 1h 29mn
    Bit rate mode : Constant
    Bit rate : 192 Kbps
    Channel(s) : 2 channels
    Channel positions : Front: L R
    Sampling rate : 48.0 KHz
    Bit depth : 16 bits
    Compression mode : Lossy
    Stream size : 123 MiB (7%)
    Language : Russian
    Default : Yes
    Forced : Yes
    Audio #2
    ID : 3
    Format : AC-3
    Format/Info : Audio Coding 3
    Mode extension : CM (complete main)
    Format settings, Endianness : Big
    Codec ID : A_AC3
    Duration : 1h 29mn
    Bit rate mode : Constant
    Bit rate : 512 Kbps
    Channel(s) : 6 channels
    Channel positions : Front: L C R, Side: L R, LFE
    Sampling rate : 48.0 KHz
    Bit depth : 16 bits
    Compression mode : Lossy
    Stream size : 329 MiB (18%)
    Language : English
    Default : No
    Forced : No
    Menu
    00:00:00.000 : en:00:00:00.000
    00:02:25.020 : en:00:02:25.020
    00:10:00.975 : en:00:10:00.975
    00:20:59.967 : en:00:20:59.967
    00:26:25.959 : en:00:26:25.959
    00:32:22.983 : en:00:32:22.983
    00:40:30.011 : en:00:40:30.011
    00:47:57.958 : en:00:47:57.958
    00:58:43.770 : en:00:58:43.770
    01:04:28.364 : en:01:04:28.364
    01:15:22.935 : en:01:15:22.935
    01:25:44.931 : en:01:25:44.931

    Релиз подготовил:
    Размер скачиваемого торрента: 1.75 GB (1883252125 Bytes)

    Зодиак: Предвестия апокалипсиса/Zodiac: Signs of the Apocalypse (2014) HDRip-AVC | P скачать через торрент бесплатно
    загрузка...
    Рейтинг →
     (голосов: 1, оценка 5/5, голосовать можно 1 раз )

    Другие торренты по теме:

  • Зодиак: Предвестия апокалипсиса / Zodiac: Signs of the Apocalypse (2014) HDRip-AVC | P
  • Зодиак: Предвестия апокалипсиса / Zodiac: Signs of the Apocalypse / 2014 / 2 x ПМ / HDRip


    • Комментарии (0):

      Информация

      Информация

        Посетители, находящиеся в группе Гости, не могут оставлять комментарии в данной новости.

        ↓ Меню



        ↓ Опрос

        А Вы добавили сайт в закладки?
        Да
        Не


        Top 10 за месяц (Фильмы)