.
Авторизация | Регистрация
» » Единственный выживший / Остаться в живых / Sole Survivor (2000) SATRip от Leon-masl скачать через торрент бесплатно




    Единственный выживший / Остаться в живых / Sole Survivor (2000) SATRip от Leon-masl скачать через торрент бесплатно

    Опубликовал: Админ | Дата: 27-02-2015, 11:10 | Просмотров: 156


    Детально о кино
    Русское название:Единственный выживший/Остаться в живых
    Русское название в мировом прокате:Sole Survivor
    Создали в:2000
    Категория жанра:Триллер, драма, детектив, фантастика
    Главный режиссер:Микаэл Саломон/Mikael Salomon

    Актеры
    Билли Зэйн/ Billy Zane, Глория Рубен/Gloria Reuben, Изабелла Хофманн/Isabella Hofmann, Уолли Далтон/Wally Dalton, Кристин Уиллес/Christine Willes, Гленн Моршоуер/Glenn Morshower,Джон МакГинли/ John C. McGinley, Кристофер Бриттон/Christopher Britton, Терис Ротери/Teryl Rothery, Патрисия Идлетти/Patricia Idlette, Джоделль Ферлэнд/Jodelle Ferland, Терри Дэвид Маллигэн/Terry David Mulligan, Дон Томпсон/Don Thompson

    Сюжет фильма

    Бывший репортёр Джо Карпентер оплакивает жену и дочь, погибших в авиакатастрофе. На кладбище к нему обращается странная женщина. Её зовут Роуз, и она утверждает, что находилась на борту того самого злополучного рейса, более того, она уверена, что дочь Джо жива!
    За происшествием с самолётом стоит какая-то страшная тайна, именно поэтому теперь Роуз преследуют агенты ФБР, в том числе безжалостный Йейтс. Джо решает провести собственное расследование причин авиакатастрофы, но всех людей, с которыми он пытается войти в контакт, убивает агент Йейтс. Цель Йейтса — поймать Роуз, как единственную свидетельницу тёмных секретных экспериментов, проводимых правительством, и заставить её замолчать навсегда.
    Рискуя собственной жизнью, Джо продолжает расследование, чтобы узнать правду о близких и спасти дочь.

    по романуДина Кунца
    Снималось в:Канада
    Время просмотра:02:45:02
    Перевод текста:Профессиональный (многоголосый, закадровый)
    Файл
    Кодек для видео:Xvid
    Качество фильма:SATRip
    Информация о видео:704x528, 25.00fps, 1699 kbps
    Информация о звуке:AC3, 2 ch, 48.0 kHz, 192 kbps
    MI
    Общее
    Полное имя : Ostatsia.v.Jeevih.avi
    Формат : AVI
    Формат/Информация : Audio Video Interleave
    Профиль формата : OpenDML
    Размер файла : 2,18 Гбайт
    Продолжительность : 2 ч. 44 м.
    Общий поток : 1903 Кбит/сек
    Программа кодирования : VirtualDubMod 1.5.10.3 | www.virtualdub-fr.org || (build 2550/release)
    Библиотека кодирования : VirtualDubMod build 2550/release
    Видео
    Идентификатор : 0
    Формат : MPEG-4 Visual
    Профиль формата : Advanced Simple@L5
    Параметр BVOP формата : 1
    Параметр QPel формата : Нет
    Параметр GMC формата : Без точки перехода
    Параметр матрицы формата : Выборочная
    Идентификатор кодека : XVID
    Идентификатор кодека/Подсказка : XviD
    Продолжительность : 2 ч. 44 м.
    Битрейт : 1699 Кбит/сек
    Ширина : 704 пикс.
    Высота : 528 пикс.
    Соотношение сторон : 4:3
    Частота кадров : 25,000 кадр/сек
    Цветовое пространство : YUV
    Подвыборка цветности : 4:2:0
    Битовая глубина : 8 бит
    Тип развёртки : Прогрессивная
    Метод сжатия : С потерями
    Бит/(Пиксели*Кадры) : 0.183
    Размер потока : 1,95 Гбайт (89%)
    Библиотека кодирования : XviD 73
    Аудио
    Идентификатор : 1
    Формат : AC-3
    Формат/Информация : Audio Coding 3
    Расширение режима : CM (complete main)
    Идентификатор кодека : 2000
    Продолжительность : 2 ч. 44 м.
    Вид битрейта : Постоянный
    Битрейт : 192 Кбит/сек
    Канал(ы) : 2 канала(ов)
    Расположение каналов : Front: L R
    Частота : 48,0 КГц
    Битовая глубина : 16 бит
    Метод сжатия : С потерями
    Размер потока : 226 Мбайт (10%)
    Выравнивание : Разделение по промежуткам
    Продолжительность промежутка : 40 мс. (1,00 видеокадр)
    Время предзагрузки промежутка : 500 ms
    Скриншоты

    Релиз подготовил:Leon-masl
    Залил: leon-masl
    Размер скачиваемого торрента: 2.18 GB (2343864320 Bytes)

    Единственный выживший/Остаться в живых/Sole Survivor (2000) SATRip от Leon-masl скачать через торрент бесплатно
    загрузка...
    Рейтинг →
     (голосов: 1, оценка 5/5, голосовать можно 1 раз )

    Другие торренты по теме:



      Комментарии (0):

      Информация

      Информация

        Посетители, находящиеся в группе Гости, не могут оставлять комментарии в данной новости.

        ↓ Меню



        ↓ Опрос

        А Вы добавили сайт в закладки?
        Да
        Не


        Top 10 за неделю (Фильмы)