.
Авторизация | Регистрация
» » Чёрное море / Black Sea (2014) WEBRip-AVC | P торрент скачать бесплатно




    Чёрное море / Black Sea (2014) WEBRip-AVC | P торрент скачать бесплатно

    Опубликовал: Админ | Дата: 27-02-2015, 11:10 | Просмотров: 228


    Детально о кино
    Русское название:Чёрное море
    Русское название в мировом прокате:Black Sea
    Создали в:2014
    Категория жанра:триллер, приключения
    Главный режиссер:Кевин МакДональд

    Актеры
    Джуд Лоу, Скут МакНэйри, Бен Мендельсон, Джоди Уиттакер, Тобайас Мензис, Григорий Добрыгин, Паулина Бонева, Джун Смит, Дэвид Трелфолл, Майкл Смайли

    Сюжет фильма

    К уволенному капитану подводной лодки - обращается таинственный наниматель с предложением возглавить экспедицию по поиску затонувшей у берегов Чёрного моря субмарины, предположительно загруженной золотом. Желая подзаработать на этом деле и отомстить бывшему работодателю, капитан собирает команду из русских и английских моряков и отправляется в плавание, но вскоре понимает, в какое рискованное предприятие ввязался.

    Снималось в:Великобритания, США, Россия
    Киностудия:Focus Features, Film4, Cowboy Films
    Время просмотра:01:49:43
    Перевод текста:Профессиональный многоголосыйOфициальный
    Файл
    Кодек для видео:MPEG-4 AVC (MKV)
    Качество фильма:WEBRip-AVC (исх. WEBRip 720p)
    Информация о видео:MPEG-4 AVC, 1024x424, 2036 Kbps
    Информация о звуке:AC3, 192 Kbps (2 ch)
    Субтитры:нет
    Семпл
    Скриншоты
    MediaInfo
    General
    Unique ID : 227424562838317214948720084263467197621 (0xAB1860A8297BC4A2A150BF22D15FA4B5)
    Complete name : G:ДИСК 2?1.ФИЛЬМЫЧёрное море Black Sea (2014)4ornoe More. Black Sea (2014) WEBRip-AVC.mkv
    Format : Matroska
    Format version : Version 4/Version 2
    File size : 1.74 GiB
    Duration : 1h 49mn
    Overall bit rate : 2 273 Kbps
    Encoded date : UTC 2015-02-16 14:33:19
    Writing application : mkvmerge v7.5.0 (;Glass Culture;) 64bit built on Jan 4 2015 16:48:44
    Writing library : libebml v1.3.1 + libmatroska v1.4.2
    _STATISTICS_WRITING_APP : mkvmerge v7.5.0 (;Glass Culture;) 64bit built on Jan 4 2015 16:48:44
    _STATISTICS_WRITING_DATE_UTC : 2015-02-16 14:33:19
    _STATISTICS_TAGS : BPS DURATION NUMBER_OF_FRAMES NUMBER_OF_BYTES
    DURATION : 01:49:42.320000000
    NUMBER_OF_FRAMES : 164558
    NUMBER_OF_BYTES : 1710776175
    Video
    ID : 1
    Format : AVC
    Format/Info : Advanced Video Codec
    Format profile : Main@L4.1
    Format settings, CABAC : Yes
    Format settings, ReFrames : 8 frames
    Codec ID : V_MPEG4/ISO/AVC
    Duration : 1h 49mn
    Bit rate : 2 036 Kbps
    Width : 1 024 pixels
    Height : 424 pixels
    Display aspect ratio : 2.40:1
    Frame rate mode : Constant
    Frame rate : 25.000 fps
    Color space : YUV
    Chroma subsampling : 4:2:0
    Bit depth : 8 bits
    Scan type : Progressive
    Bits/(Pixel*Frame) : 0.188
    Stream size : 1.56 GiB (90%)
    Title : Release by АРХАНГЕЛ
    Language : English
    Default : Yes
    Forced : No
    Audio
    ID : 2
    Format : AC-3
    Format/Info : Audio Coding 3
    Mode extension : CM (complete main)
    Format settings, Endianness : Big
    Codec ID : A_AC3
    Duration : 1h 49mn
    Bit rate mode : Constant
    Bit rate : 192 Kbps
    Channel(s) : 2 channels
    Channel positions : Front: L R
    Sampling rate : 44.1 KHz
    Bit depth : 16 bits
    Compression mode : Lossy
    Stream size : 151 MiB (8%)
    Language : Russian
    Default : Yes
    Forced : No

    Релиз подготовил:
    Размер скачиваемого торрента: 1.74 GB (1870216275 Bytes)

    Чёрное море/Black Sea (2014) WEBRip-AVC | P торрент скачать бесплатно
    загрузка...
    Рейтинг →
     (голосов: 1, оценка 3/5, голосовать можно 1 раз )

    Другие торренты по теме:



      Комментарии (0):

      Информация

      Информация

        Посетители, находящиеся в группе Гости, не могут оставлять комментарии в данной новости.

        ↓ Меню



        ↓ Опрос

        А Вы добавили сайт в закладки?
        Да
        Не


        Top 10 за неделю (Фильмы)