.
Авторизация | Регистрация
Хочешь лучшие торренты? Добавь свой email!
Добавить
» » Охота / Травля / Преследуемый / The Hunted (1995) DVDRip-AVC | P, А торрент скачать бесплатно




    Охота / Травля / Преследуемый / The Hunted (1995) DVDRip-AVC | P, А торрент скачать бесплатно

    Опубликовал: Админ | Дата: 27-02-2015, 11:10 | Просмотров: 267


    Детально о кино
    Русское название:Охота/Травля/Преследуемый
    Русское название в мировом прокате:The Hunted
    Создали в:1995
    Категория жанра:Боевик, Триллер, Драма
    Главный режиссер:Дж.Ф. Лоутон/J.F. Lawton

    Актеры
    Кристофер Ламберт,Джон Лоун,Джоан Чэнь, Йошио Харада, Ёко Симада, Мари Нацуки, Так Кубота, Масуми Окада, Татсуя Ириэ, Майкл Уоррен


    Сюжет фильма

    Приехавший по делам фирмы в Японию нью-йоркский бизнесмен Поль Расин проводит романтическую ночь с очаровательной незнакомкой. Став случайным свидетелем ее убийства, он попадает в водоворот кровавых и загадочных событий, связанных с давней враждой между двумя древними и могущественными кланами ниндзя. И, став объектом преследования, Поль принимает бой…

    Снималось в:США
    Время просмотра:01:50:05
    Перевод текста:Авторский (одноголосый закадровый) Ю. Живов, Профессиональный (многоголосый, закадровый), Авторский (одноголосый закадровый) А. Гаврилов

    Файл
    Кодек для видео:Xvid
    Качество фильма:DVDRip-AVC
    Информация о видео:AVC, 720x400 (16:9), 29.970 fps, 2 016 Kbps (0.234 bit/pixel)
    Информация о звуке #1:AC-3, 48.0 KHz, 6 ch, 448 Kbps, CBR (Russian) - Ю.Живов
    Информация о звуке #2:AC-3, 44.1 KHz, 2 ch, 192 Kbps, CBR (Russian) - Многоголосый
    Информация о звуке #3:AC-3, 48.0 KHz, 2 ch, 192 Kbps, CBR (Russian) - А.Гаврилов
    MI
    Format : Matroska
    Format version : Version 2
    File size : 2.24 GiB
    Duration : 1h 50mn
    Overall bit rate : 2 906 Kbps
    Encoded date : UTC 2015-02-17 16:12:21
    Writing application : mkvmerge v5.3.0 (;I could have danced;) built on Feb 9 2012 10:38:07
    Writing library : libebml v1.2.3 + libmatroska v1.3.0
    Attachment : Yes
    Video
    ID : 1
    Format : AVC
    Format/Info : Advanced Video Codec
    Format profile : High@L4.1
    Format settings, CABAC : Yes
    Format settings, ReFrames : 10 frames
    Codec ID : V_MPEG4/ISO/AVC
    Duration : 1h 50mn
    Bit rate : 2 016 Kbps
    Width : 720 pixels
    Height : 400 pixels
    Display aspect ratio : 16:9
    Frame rate mode : Constant
    Frame rate : 29.970 fps
    Color space : YUV
    Chroma subsampling : 4:2:0
    Bit depth : 8 bits
    Scan type : Progressive
    Bits/(Pixel*Frame) : 0.234
    Stream size : 1.55 GiB (69%)
    Writing library : x264 core 130 r2273 b3065e6
    Encoding settings : cabac=1/ref=10/deblock=1:-3:-3/analyse=0x3:0x133/me=umh/subme=11/psy=1/psy_rd=1.00:0.15/mixed_ref=1/me_range=32/chroma_me=1/trellis=2/8x8dct=1/cqm=0/deadzone=21,11/fast_pskip=0/chroma_qp_offset=-3/threads=12/lookahead_threads=2/sliced_threads=0/nr=0/decimate=0/interlaced=0/bluray_compat=0/constrained_intra=0/bframes=12/b_pyramid=2/b_adapt=2/b_bias=0/direct=3/weightb=1/open_gop=0/weightp=2/keyint=240/keyint_min=23/scenecut=40/intra_refresh=0/rc=crf/mbtree=0/crf=17.5/qcomp=0.60/qpmin=0/qpmax=69/qpstep=4/ip_ratio=1.40/pb_ratio=1.30/aq=1:1.00
    Default : Yes
    Forced : No
    Audio #1
    ID : 2
    Format : AC-3
    Format/Info : Audio Coding 3
    Mode extension : CM (complete main)
    Format settings, Endianness : Big
    Codec ID : A_AC3
    Duration : 1h 50mn
    Bit rate mode : Constant
    Bit rate : 448 Kbps
    Channel(s) : 6 channels
    Channel positions : Front: L C R, Side: L R, LFE
    Sampling rate : 48.0 KHz
    Bit depth : 16 bits
    Compression mode : Lossy
    Stream size : 353 MiB (15%)
    Title : Авторский Ю.Живов
    Language : Russian
    Default : Yes
    Forced : No
    Audio #2
    ID : 3
    Format : AC-3
    Format/Info : Audio Coding 3
    Mode extension : CM (complete main)
    Format settings, Endianness : Big
    Codec ID : A_AC3
    Duration : 1h 50mn
    Bit rate mode : Constant
    Bit rate : 192 Kbps
    Channel(s) : 2 channels
    Channel positions : Front: L R
    Sampling rate : 44.1 KHz
    Bit depth : 16 bits
    Compression mode : Lossy
    Stream size : 151 MiB (7%)
    Title : многоголосый
    Language : Russian
    Default : No
    Forced : No
    Audio #3
    ID : 4
    Format : AC-3
    Format/Info : Audio Coding 3
    Mode extension : CM (complete main)
    Format settings, Endianness : Big
    Codec ID : A_AC3
    Duration : 1h 50mn
    Bit rate mode : Constant
    Bit rate : 192 Kbps
    Channel(s) : 2 channels
    Channel positions : Front: L R
    Sampling rate : 48.0 KHz
    Bit depth : 16 bits
    Compression mode : Lossy
    Delay relative to video : 1ms
    Stream size : 151 MiB (7%)
    Title : Авторский А.Гаврилов
    Language : Russian
    Default : No
    Forced : No
    Скриншоты



    Размер скачиваемого торрента: 2.24 GB (2400418660 Bytes)

    Охота/Травля/Преследуемый/The Hunted (1995) DVDRip-AVC | P, А торрент скачать бесплатно
    загрузка...
    Рейтинг →
     (голосов: 1, оценка 3/5, голосовать можно 1 раз )

    Другие торренты по теме:

  • Военная охота / Охота на поле боя / War Hunt (1962) HDTVRip от Pshichko66 | P2
  • Травля / Преследуемый / Охота / The Hunted (1995) DVDRip | P2
  • Охота за Красным Октябрем / The Hunt for Red October (1990) HDRip от CinemaClub
  • Охота на роботов / Runaway (1984) DVDRip-AVC
  • Охота за Янтарной комнатой / Die Jagd nach dem Bernsteinzimmer (2012) HDRip | L1
  • Николай Кутеповъ - Царская охота на Руси (1896-1911) DjVu
  • OST - Охота на пиранью (2006) MP3
  • Джеймс Хедли Чейз - Охота на блондинок (2013) MP3


    • Комментарии (0):

      Информация

      Информация

        Посетители, находящиеся в группе Гости, не могут оставлять комментарии в данной новости.

        ↓ Меню



        ↓ Опрос

        А Вы добавили сайт в закладки?
        Да
        Не


        Top 10 за месяц (Фильмы)