.
Авторизация | Регистрация
Хочешь лучшие торренты? Добавь свой email!
Добавить
» » Концерт фронту (1942) DVDRip от New-Team торрент скачать бесплатно




    Концерт фронту (1942) DVDRip от New-Team торрент скачать бесплатно

    Опубликовал: Админ | Дата: 27-02-2015, 11:10 | Просмотров: 181


    Снималось в: СССР
    Создали в: Центральная студия кинохроники
    Категория жанра: киноконцерт
    Создали в: 1942
    Время просмотра: 00:56:47
    Перевод текста:Не требуется
    Субтитры подготовлены: нет
    Оригинальная аудиодорожка: русский
    Главный режиссер: Михаил Слуцкий

    Актеры

    Аркадий Райкин, Лидия Русланова, Михаил Царёв, Иван Козловский, Максим Михайлов, Ольга Лепешинская, Клавдия Шульженко, Игорь Ильинский, Карандаш (Михаил Румянцев), Леонид Утёсов, Нина Емельянова, Михаил Пуговкин...
    Описание:
    Киноконцерт, предназначенный прежде всего для демонстрации бойцам действующей армии, снимался в ноябре 1942 года в Москве, в неотапливаемом из-за войны павильоне. Принять участие в нём пригласили лучших, любимейших артистов. Концертные номера объединены нехитрым сюжетом — это как бы фильм в фильме: киномеханик в землянке показывает бойцам фильм, объявляя исполнителей и комментируя номера. Концерт был отснят на плёнку, затем развозился и показывался в прифронтовой зоне с помощью портативных кинопроекционных аппаратов.



    Источник:DVD5 R5
    Качество фильма видео:DVDRip
    Тип видео видео: AVI
    Информация о видео: 688x512 (4:3), 25 fps, XviD ~ 1633 kbps avg, 0.185 bit/pixel
    Информация о звуке: 48 kHz, Dolby Digital AC3 2.0, 192 kbps
    Раздача от:
    MediaInfo

    Общее
    Полное имя : Koncert.frontu.1942.DVDRip_New-team_by_AVP_Studio.avi
    Формат : AVI
    Формат/Информация : Audio Video Interleave
    Размер файла : 745 Мбайт
    Продолжительность : 56 м.
    Общий поток : 1834 Кбит/сек
    Программа кодирования : VirtualDubModRus 1.5.10.2 (build 2542/release)
    Библиотека кодирования : VirtualDubMod build 2542/release
    Видео
    Идентификатор : 0
    Формат : MPEG-4 Visual
    Профиль формата : Advanced Simple@L5
    Параметр BVOP формата : 1
    Параметр QPel формата : Нет
    Параметр GMC формата : Без точки перехода
    Параметр матрицы формата : Выборочная
    Идентификатор кодека : XVID
    Идентификатор кодека/Подсказка : XviD
    Продолжительность : 56 м.
    Битрейт : 1633 Кбит/сек
    Ширина : 688 пикселей
    Высота : 512 пикселей
    Соотношение сторон : 4:3
    Частота кадров : 25,000 кадров/сек
    Цветовое пространство : YUV
    Субдискретизация насыщенности : 4:2:0
    Битовая глубина : 8 бит
    Тип развёртки : Прогрессивная
    Метод сжатия : С потерями
    Бит/(Пиксели*Кадры) : 0.185
    Размер потока : 663 Мбайт (89%)
    Библиотека кодирования : XviD 73
    Аудио
    Идентификатор : 1
    Формат : AC-3
    Формат/Информация : Audio Coding 3
    Расширение режима : CM (complete main)
    Параметр Endianness формата : Big
    Идентификатор кодека : 2000
    Продолжительность : 56 м.
    Вид битрейта : Постоянный
    Битрейт : 192 Кбит/сек
    Каналы : 2 канала
    Расположение каналов : Front: L R
    Частота : 48,0 КГц
    Битовая глубина : 16 бит
    Метод сжатия : С потерями
    Размер потока : 78,0 Мбайт (10%)
    Выравнивание : Разделение по промежуткам
    Продолжительность промежутка : 40 мс. (1,00 видеокадр)
    Время предзагрузки промежутка : 500 мс

    Скриншоты



    Залил: AVPStudio
    Размер скачиваемого торрента: 744.99 MB (781180928 Bytes)

    Концерт фронту (1942) DVDRip от New-Team торрент скачать бесплатно
    загрузка...
    Рейтинг →
     (голосов: 1, оценка 3/5, голосовать можно 1 раз )

    Другие торренты по теме:

  • Концерт фронту / 1942 / РУ / DVD -5
  • Концерт фронту / 1942 / РУ / DVDRip (AVC)


    • Комментарии (0):

      Информация

      Информация

        Посетители, находящиеся в группе Гости, не могут оставлять комментарии в данной новости.

        ↓ Меню



        ↓ Опрос

        А Вы добавили сайт в закладки?
        Да
        Не


        Top 10 за месяц (Фильмы)