.
Авторизация | Регистрация
» » Вне времени / The Lovers (2014) WEB-DLRip | L2 скачать через торрент бесплатно




    Вне времени / The Lovers (2014) WEB-DLRip | L2 скачать через торрент бесплатно

    Опубликовал: Админ | Дата: 27-02-2015, 11:10 | Просмотров: 165


    Детально о кино
    Русское название: Вне времени
    Русское название в мировом прокате: The Lovers
    Создали в: 2015
    Категория жанра: фантастика, боевик, мелодрама, приключения
    Главный режиссер: Роланд Жоффе

    Актеры
    Джош Хартнетт, Бипаша Басу, Абхай Деол, Тэмзин Эджертон, Элис Энглерт, Клер ван дер Бом, Махеш Джаду, Симона Кэссел, Темина Санни

    Сюжет фильма
    Это история о храбрости и великой силе любви. Археолог-подводник Джей Финнел вместе с женой исследует затонувшее торговое судно XVIII века. Однажды, пытаясь спасти супругу, он получает опасное ранение и впадает в кому. Борясь со смертью, герой переступает грань реальности и переносится в Индию 1778 года, где начинает жить жизнью британского офицера Джеймса Стюарта, поглощенного страстью к прекрасной воительнице Туладже.

    Снималось в: Индия, Бельгия, Австралия/Bliss Media, Corsan, Limelight International Media Entertainment, Neelmudra Entertainment
    Время просмотра: 01:49:20
    Тип перевода:Любительское (многоголосое) ICG
    Файл
    Тип видео: AVI (XviD)
    Качество фильма: WEB-DLRip Рип с WEB-DL 720p
    Информация о видео: 1510 kb/s, 720x304
    Информация о звуке: Russian/English: AC3, 192 kb/s (2 ch)
    MI

    Format : AVI
    Format/Info : Audio Video Interleave
    File size : 1.46 GiB
    Duration : 1h 49mn
    Overall bit rate : 1 908 Kbps
    Writing application : VirtualDubMod 1.5.10.3 | www.virtualdub-fr.org || (build 2550/release)
    Writing library : VirtualDubMod build 2550/release
    Video
    ID : 0
    Format : MPEG-4 Visual
    Format profile : Advanced Simple@L5
    Format settings, BVOP : 1
    Format settings, QPel : No
    Format settings, GMC : No warppoints
    Format settings, Matrix : Custom
    Codec ID : XVID
    Codec ID/Hint : XviD
    Duration : 1h 49mn
    Bit rate : 1 510 Kbps
    Width : 720 pixels
    Height : 304 pixels
    Display aspect ratio : 2.35:1
    Frame rate : 24.000 fps
    Color space : YUV
    Chroma subsampling : 4:2:0
    Bit depth : 8 bits
    Scan type : Progressive
    Compression mode : Lossy
    Bits/(Pixel*Frame) : 0.288
    Stream size : 1.15 GiB (79%)
    Writing library : XviD 73
    Audio #1
    ID : 1
    Format : AC-3
    Format/Info : Audio Coding 3
    Mode extension : CM (complete main)
    Format settings, Endianness : Big
    Codec ID : 2000
    Duration : 1h 49mn
    Bit rate mode : Constant
    Bit rate : 192 Kbps
    Channel(s) : 2 channels
    Channel positions : Front: L R
    Sampling rate : 48.0 KHz
    Bit depth : 16 bits
    Compression mode : Lossy
    Stream size : 150 MiB (10%)
    Alignment : Split accross interleaves
    Interleave, duration : 42 ms (1.00 video frame)
    Interleave, preload duration : 500 ms
    Audio #2
    ID : 2
    Format : AC-3
    Format/Info : Audio Coding 3
    Mode extension : CM (complete main)
    Format settings, Endianness : Big
    Codec ID : 2000
    Duration : 1h 49mn
    Bit rate mode : Constant
    Bit rate : 192 Kbps
    Channel(s) : 2 channels
    Channel positions : Front: L R
    Sampling rate : 48.0 KHz
    Bit depth : 16 bits
    Compression mode : Lossy
    Stream size : 150 MiB (10%)
    Alignment : Split accross interleaves
    Interleave, duration : 42 ms (1.00 video frame)
    Interleave, preload duration : 500 ms
    Скриншоты

    Размер скачиваемого торрента: 1.46 GB (1565104128 Bytes)

    Вне времени/The Lovers (2014) WEB-DLRip | L2 скачать через торрент бесплатно
    загрузка...
    Рейтинг →
     (голосов: 1, оценка 3/5, голосовать можно 1 раз )

    Другие торренты по теме:

  • Вне времени. Бегущие по спинам быков. Последние пленники пустыни (2008-2010) DVDRip-AVC от Тorrent-Хzona торрент скачать бесплатно
  • Вне времени. Дети саванны (2009) DVDRip-AVC от Тorrent-Хzona торрент скачать бесплатно
  • Вне времени: Забытый замок (2013) PC торрент скачать бесплатно
  • Вне времени. Священный огонь Химба (2010) DVDRip-AVC от Тorrent-Хzona торрент скачать бесплатно
  • Вне времени. Люди величиной с кулак (2010) DVDRip-AVC от Тorrent-Хzona торрент скачать бесплатно
  • Вне времени. Калашников из каменного века (2010) DVDRip-AVC от Тorrent-Хzona торрент скачать бесплатно
  • Вне времени / Out Of Time (2003) BDRip 1080p торрент скачать бесплатно
  • Вне времени. Забытый город. Коллекционное издание / Timeless: The Forgotten Town. Collectors Edition (2013) PC | RePack от adguard торрент скачать бесплатно


    • Комментарии (0):

      Информация

      Информация

        Посетители, находящиеся в группе Гости, не могут оставлять комментарии в данной новости.

        ↓ Меню



        ↓ Опрос

        А Вы добавили сайт в закладки?
        Да
        Не


        Top 10 за неделю (Фильмы)