.
Авторизация | Регистрация
Хочешь лучшие торренты? Добавь свой email!
Добавить
» » Стрингер / Nightcrawler (2014) BDRip 720p | A, L2, P торрент скачать бесплатно




    Стрингер / Nightcrawler (2014) BDRip 720p | A, L2, P торрент скачать бесплатно

    Опубликовал: Админ | Дата: 27-02-2015, 11:10 | Просмотров: 130



    Детально о кино
    Русское название: Стрингер
    Русское название в мировом прокате: Nightcrawler
    Создали в: 2014
    Категория жанра:триллер, драма, криминал
    Главный режиссер: Дэн Гилрой

    Актеры
    Джейк Джилленхол, Рене Руссо, Билл Пэкстон, Джонни Койн, Энн МакДэниелс, Риз Ахмед, Джейми МакШейн, Кэтлин Йорк, Эрик Ланж, Майкл Хайатт елли, Филип Марлатт, Натали Де Луна, Эрик Янг


    Сюжет фильма
    Парень из Лос-Анджелеса Лу Блум (Джейк Джилленхол) промышляет нелегальной торговлей металлом. Абсолютно неперспективное занятие, учитывая тот факт, что никто не соглашается взять его на нормальную работу, зная, что он вор.



    Снималось в: США/Bold Films
    Время просмотра: 01:58:05
    Перевод текста:Авторский(одноголосый, закадровый)-Д.Есарев | A.Матвеев
    Любительский(двухголосый, закадровый)-Киностудия Пиратского Дубляжа
    Профессиональный(многоголосый, закадровый)-Цікава ідея

    Файл
    Качество фильма:BDRip 720p
    Тип видео: MKV
    Информация о видео: MPEG4/AVC, 6449 Кбит/сек, 1280х534 (2.40:1), 23.976 кадра/сек
    Информация о звуке 1: AC3, 6 каналов, 448 Кбит/сек |Русский - Д.Есарев
    Информация о звуке 2: AC3, 6 каналов, 448 Кбит/сек |Русский - A.Матвеев
    Информация о звуке 3: AC3, 2 канала, 192 Кбит/сек |Русский - Студия Пиратского Дубляжа
    Информация о звуке 4: AC3, 6 каналов, 448 Кбит/сек |Украинский - Цікава ідея
    Информация о звуке 5: AC3, 6 каналов, 448 Кбит/сек |Английский
    Субтитры: Русские, английские (Full, SDH)
    Навигация по главам: Есть

    MediaInfo:
    Общее
    Уникальный идентификатор : 183950065857398698369000916552716156357 (0x8A637E777BD4D6569195416A0C747DC5)
    Полное имя : Nightcrawler. (2014) BDRip 720p.mkv
    Формат : Matroska
    Версия формата : Version 2
    Размер файла : 6,96 Гбайт
    Продолжительность : 1 ч. 58 м.
    Общий поток : 8434 Кбит/сек
    Название фильма : Nightcrawler. 2014
    Дата кодирования : UTC 2015-02-22 14:42:27
    Программа кодирования : mkvmerge v5.8.0 (;No Sleep/Pillow;) built on Sep 2 2012 15:37:04
    Библиотека кодирования : libebml v1.2.3 + libmatroska v1.3.0

    Видео
    Идентификатор : 1
    Формат : AVC
    Формат/Информация : Advanced Video Codec
    Профиль формата : High@L4.1
    Параметр CABAC формата : Да
    Параметр ReFrames формата : 12 кадров
    Идентификатор кодека : V_MPEG4/ISO/AVC
    Продолжительность : 1 ч. 58 м.
    Битрейт : 6449 Кбит/сек
    Ширина : 1280 пикселей
    Высота : 534 пикселя
    Соотношение сторон : 2,40:1
    Режим частоты кадров : Постоянный
    Частота кадров : 23,976 кадра/сек
    Цветовое пространство : YUV
    Субдискретизация насыщенности : 4:2:0
    Битовая глубина : 8 бит
    Тип развёртки : Прогрессивная
    Бит/(Пиксели*Кадры) : 0.394
    Размер потока : 5,18 Гбайт (74%)
    Заголовок : WiKi
    Библиотека кодирования : x264 core 129 r2245 bc13772
    Настройки программы : cabac=1/ref=12/deblock=1:-3:-3/analyse=0x3:0x133/me=umh/subme=11/psy=1/psy_rd=1.10:0.15/mixed_ref=1/me_range=32/chroma_me=1/trellis=2/8x8dct=1/cqm=0/deadzone=21,11/fast_pskip=0/chroma_qp_offset=-3/threads=12/lookahead_threads=2/sliced_threads=0/nr=0/decimate=1/interlaced=0/bluray_compat=0/constrained_intra=0/bframes=8/b_pyramid=2/b_adapt=2/b_bias=0/direct=3/weightb=1/open_gop=0/weightp=2/keyint=250/keyint_min=23/scenecut=40/intra_refresh=0/rc_lookahead=60/rc=2pass/mbtree=1/bitrate=6449/ratetol=1.0/qcomp=0.60/qpmin=0/qpmax=69/qpstep=4/cplxblur=20.0/qblur=0.5/ip_ratio=1.40/aq=1:0.80
    Язык : English
    Default : Да
    Forced : Нет

    Аудио #1
    Идентификатор : 2
    Формат : AC-3
    Формат/Информация : Audio Coding 3
    Расширение режима : CM (complete main)
    Параметр Endianness формата : Big
    Идентификатор кодека : A_AC3
    Продолжительность : 1 ч. 58 м.
    Вид битрейта : Постоянный
    Битрейт : 448 Кбит/сек
    Каналы : 6 каналов
    Расположение каналов : Front: L C R, Side: L R, LFE
    Частота : 48,0 КГц
    Битовая глубина : 16 бит
    Метод сжатия : С потерями
    Размер потока : 378 Мбайт (5%)
    Заголовок : A | Д.Есарев
    Язык : Russian
    Default : Да
    Forced : Нет

    Аудио #2
    Идентификатор : 3
    Формат : AC-3
    Формат/Информация : Audio Coding 3
    Расширение режима : CM (complete main)
    Параметр Endianness формата : Big
    Идентификатор кодека : A_AC3
    Продолжительность : 1 ч. 58 м.
    Вид битрейта : Постоянный
    Битрейт : 448 Кбит/сек
    Каналы : 6 каналов
    Расположение каналов : Front: L C R, Side: L R, LFE
    Частота : 48,0 КГц
    Битовая глубина : 16 бит
    Метод сжатия : С потерями
    Размер потока : 378 Мбайт (5%)
    Заголовок : A | A.Матвеев
    Язык : Russian
    Default : Нет
    Forced : Нет

    Аудио #3
    Идентификатор : 4
    Формат : AC-3
    Формат/Информация : Audio Coding 3
    Расширение режима : CM (complete main)
    Параметр Endianness формата : Big
    Идентификатор кодека : A_AC3
    Продолжительность : 1 ч. 58 м.
    Вид битрейта : Постоянный
    Битрейт : 192 Кбит/сек
    Каналы : 2 канала
    Расположение каналов : Front: L R
    Частота : 48,0 КГц
    Битовая глубина : 16 бит
    Метод сжатия : С потерями
    Размер потока : 162 Мбайт (2%)
    Заголовок : P2 | Студия Пиратского Дубляжа
    Язык : Russian
    Default : Нет
    Forced : Нет

    Аудио #4
    Идентификатор : 5
    Формат : AC-3
    Формат/Информация : Audio Coding 3
    Расширение режима : CM (complete main)
    Параметр Endianness формата : Big
    Идентификатор кодека : A_AC3
    Продолжительность : 1 ч. 58 м.
    Вид битрейта : Постоянный
    Битрейт : 448 Кбит/сек
    Каналы : 6 каналов
    Расположение каналов : Front: L C R, Side: L R, LFE
    Частота : 48,0 КГц
    Битовая глубина : 16 бит
    Метод сжатия : С потерями
    Размер потока : 378 Мбайт (5%)
    Заголовок : P | Цікава ідея
    Язык : Ukrainian
    Default : Нет
    Forced : Нет

    Аудио #5
    Идентификатор : 6
    Формат : AC-3
    Формат/Информация : Audio Coding 3
    Расширение режима : CM (complete main)
    Параметр Endianness формата : Big
    Идентификатор кодека : A_AC3
    Продолжительность : 1 ч. 58 м.
    Вид битрейта : Постоянный
    Битрейт : 448 Кбит/сек
    Каналы : 6 каналов
    Расположение каналов : Front: L C R, Side: L R, LFE
    Частота : 48,0 КГц
    Битовая глубина : 16 бит
    Метод сжатия : С потерями
    Размер потока : 378 Мбайт (5%)
    Заголовок : Original
    Язык : English
    Default : Нет
    Forced : Нет

    Текст #1
    Идентификатор : 7
    Формат : UTF-8
    Идентификатор кодека : S_TEXT/UTF8
    Идентификатор кодека/Информация : UTF-8 Plain Text
    Заголовок : Full | A.Матвеев
    Язык : Russian
    Default : Нет
    Forced : Нет

    Текст #2
    Идентификатор : 8
    Формат : UTF-8
    Идентификатор кодека : S_TEXT/UTF8
    Идентификатор кодека/Информация : UTF-8 Plain Text
    Заголовок : Full
    Язык : English
    Default : Нет
    Forced : Нет

    Текст #3
    Идентификатор : 9
    Формат : UTF-8
    Идентификатор кодека : S_TEXT/UTF8
    Идентификатор кодека/Информация : UTF-8 Plain Text
    Заголовок : SDH
    Язык : English
    Default : Нет
    Forced : Нет

    Меню
    00:00:00.000 : en:Chapter 1
    00:06:24.509 : en:Chapter 2
    00:11:22.848 : en:Chapter 3
    00:16:16.350 : en:Chapter 4
    00:23:49.803 : en:Chapter 5
    00:30:47.053 : en:Chapter 6
    00:36:29.520 : en:Chapter 7
    00:42:44.478 : en:Chapter 8
    00:46:55.604 : en:Chapter 9
    00:53:16.735 : en:Chapter 10
    01:00:54.150 : en:Chapter 11
    01:07:27.251 : en:Chapter 12
    01:13:05.798 : en:Chapter 13
    01:18:23.907 : en:Chapter 14
    01:25:06.059 : en:Chapter 15
    01:29:24.150 : en:Chapter 16
    01:36:17.980 : en:Chapter 17
    01:44:54.830 : en:Chapter 18
    01:48:37.552 : en:Chapter 19
    01:53:45.944 : en:Chapter 20



    Релиз подготовил:
    Размер скачиваемого торрента: 6.96 GB (7469601188 Bytes)

    Стрингер/Nightcrawler (2014) BDRip 720p | A, L2, P торрент скачать бесплатно
    загрузка...
    Рейтинг →
     (голосов: 1, оценка 5/5, голосовать можно 1 раз )

    Другие торренты по теме:

  • Стрингер / Nightcrawler скачать через торрент бесплатно
  • Стрингер / Nightcrawler (2014) WEBRip | L2
  • Стрингер / Nightcrawler (2014) WEB-DLRip | L2 скачать через торрент бесплатно
  • Стрингер / Nightcrawler (2014) WEB-DLRip от Scarabey | L2
  • Стрингер / Nightcrawler (2014) HDRip от BitTracker | L2
  • Стрингер / Nightcrawler (2014) BDRemux 1080p | L2 скачать через торрент бесплатно
  • Стрингер / Nightcrawler (2014) HDRip от Scarabey | L2 скачать через торрент бесплатно
  • Стрингер / Nightcrawler (2014) BDRip-AVC от Leonardo and Scarabey | L2


    • Комментарии (0):

      Информация

      Информация

        Посетители, находящиеся в группе Гости, не могут оставлять комментарии в данной новости.

        ↓ Меню



        ↓ Опрос

        А Вы добавили сайт в закладки?
        Да
        Не


        Top 10 за месяц (Фильмы)