.
Авторизация | Регистрация
Хочешь лучшие торренты? Добавь свой email!
Добавить
» » Звездный путь / Star Trek (2009) BDRip 1080p торрент скачать бесплатно




    Звездный путь / Star Trek (2009) BDRip 1080p торрент скачать бесплатно

    Опубликовал: Админ | Дата: 27-02-2015, 11:10 | Просмотров: 354

    Звездный путь/Star Trek (2009) BDRip 1080p
    Создали в:USA, Germany/Paramount Pictures, Spyglass Entertainment, Bad Robot
    Категория жанра:фантастика, боевик, приключения
    Главный режиссер:Джей Джей Абрамс
    Актеры:Крис Пайн, Закари Куинто, Зои Салдана, Карл Урбан, Эрик Бана, Антон Ельчин, Саймон Пегг, Джон Чо, Леонард Нимой, Брюс Гринвуд
    Описание фильма:Когда Нерон с планеты Ромул приходит из будущего, чтобы отомстить Федерации, конкуренты Кирк и Спок должны объединиться, чтобы не дать ему разрушить все, что им дорого. Во время этого будоражащего путешествия, наполненного эффектными боями, юмором и космическими угрозами, новоиспеченные члены команды военного корабля Энтерпрайз смело встретятся лицом к лицу с невообразимыми опасностями...
    Премия Оскар за Лучший грим, 2010 г.

    Время просмотра:02:06:50
    Качество фильма:BDRip (1080p)
    Перевод текста:профессиональный (полное дублирование), профессиональный (многоголосый закадровый), авторский (одноголосый закадровый)
    Вид субтитров:вшитые, отключаемые
    Язык субтитров:русские (Full, Captions), украинские (Full), английские (Full, SDH)
    Информация о видео:MPEG-4 AVC/H.264, 1920 x 800 (2,40:1), 19 000 kbps, 23.976 fps, 0.516 b/px
    Информация о звуке # 1:АС3, 6 ch, 640 kbps, 48 000 Hz дублированный
    Информация о звуке # 2:АС3, 6 ch, 448 kbps, 48 000 Hz многоголосый закадровый
    Информация о звуке # 3:DTS, 6 ch, 1509 kbps, 48 000 Hz одноголосый закадровый (Ю.Сербин)
    Информация о звуке # 4:АС3, 6 ch, 448 kbps, 48 000 Hz одноголосый закадровый (А.Гаврилов)
    Информация о звуке # 5:АС3, 6 ch, 448 kbps, 48 000 Hz дублированный (Украинский)
    Информация о звуке # 6:DTS, 6 ch, 1509 kbps, 48 000 Hz оригинальный
    MediaInfo
    Общее
    Уникальный идентификатор : 189111817061481376914354030215700599778 (0x8E459C731F2C4684BB811660A59ED3E2)
    Полное имя : E:2009 Звездный путь BDRip 1080p.mkv
    Формат : Matroska
    Версия формата : Version 4/Version 2
    Размер файла : 21,1 Гбайт
    Продолжительность : 2 ч. 6 м.
    Общий поток : 23,9 Мбит/сек
    Название фильма : Звездный путь/Star Trek (2009) BDRip 1080p
    Дата кодирования : UTC 2015-02-21 07:12:54
    Программа кодирования : mkvmerge v7.6.0 (;Garden of Dreams;) 32bit built on Feb 8 2015 12:51:39
    Библиотека кодирования : libebml v1.3.1 + libmatroska v1.4.2
    DURATION : 01:57:17.905000000
    NUMBER_OF_FRAMES : 1596
    NUMBER_OF_BYTES : 62226
    _STATISTICS_WRITING_APP : mkvmerge v7.6.0 (;Garden of Dreams;) 32bit built on Feb 8 2015 12:51:39
    _STATISTICS_WRITING_DATE_UTC : 2015-02-21 07:12:54
    _STATISTICS_TAGS : BPS DURATION NUMBER_OF_FRAMES NUMBER_OF_BYTES
    Видео
    Идентификатор : 1
    Формат : AVC
    Формат/Информация : Advanced Video Codec
    Профиль формата : High@L4.1
    Параметр CABAC формата : Да
    Параметр ReFrames формата : 5 кадров
    Идентификатор кодека : V_MPEG4/ISO/AVC
    Продолжительность : 2 ч. 6 м.
    Битрейт : 19,0 Мбит/сек
    Ширина : 1920 пикселей
    Высота : 800 пикселей
    Соотношение сторон : 2,40:1
    Режим частоты кадров : Постоянный
    Частота кадров : 23,976 кадра/сек
    Цветовое пространство : YUV
    Субдискретизация насыщенности : 4:2:0
    Битовая глубина : 8 бит
    Тип развёртки : Прогрессивная
    Бит/(Пиксели*Кадры) : 0.516
    Размер потока : 16,3 Гбайт (77%)
    Заголовок : 2009 Звездный путь/Star Trek BDRip 1080p
    Библиотека кодирования : x264 core 132 r2309kMod 3b1f1f7
    Настройки программы : cabac=1/ref=5/deblock=1:-3:-2/analyse=0x3:0x133/me=tesa/subme=11/psy=1/fade_compensate=0.00/psy_rd=1.05:0.05/mixed_ref=1/me_range=24/chroma_me=1/trellis=2/8x8dct=1/cqm=0/deadzone=21,11/fast_pskip=0/chroma_qp_offset=-2/threads=12/lookahead_threads=3/sliced_threads=0/nr=0/decimate=1/interlaced=0/bluray_compat=0/constrained_intra=0/bframes=16/b_pyramid=2/b_adapt=2/b_bias=0/direct=3/weightb=1/open_gop=0/weightp=2/keyint=250/keyint_min=23/scenecut=40/intra_refresh=0/rc=2pass/mbtree=0/bitrate=19000/ratetol=1.0/qcomp=0.75/qpmin=0/qpmax=69/qpstep=4/cplxblur=20.0/qblur=0.5/ip_ratio=1.40/pb_ratio=1.10/aq=1:0.75/zones=1655,2245,b=1.4/2777,3159,b=1.4/3458,3462,b=1.4/3605,3661,b=1.4/3676,3682,b=1.4/3910,3975,b=1.3/4049,4192,b=1.4/5244,5300,b=1.4/5416,5965,b=1.3/6289,6339,b=1.4/7259,7346,b=1.4/9680,9793,b=1.4/10039,10128,b=1.4/10800,10825,b=1.4/13192,13403,b=1.4/14180,14255,b=1.4/15542,15640,b=1.4/15745,15774,b=1.4/16495,16614,b=1.4/16643,17157,b=1.4/21094,21480,b=1.4/21788,22164,b=1.4/22340,22379,b=1.4/22485,22539,b=1.4/22551,22757,b=1.4/28414,28641,b=1.4/40720,40963,b=1.4/42129,42334,b=1.4/67735,67863,b=1.4/67960,68037,b=1.4/68107,68198,b=1.4/68284,68515,b=1.4/68938,69052,b=1.4/81463,81481,b=1.3/81553,81564,b=1.3/89436,89938,b=1.4/89958,90379,b=1.4/109677,109894,b=1.5/112987,113078,b=1.4/139102,139277,b=1.4/142802,143047,b=1.4/154031,154084,b=1.4/154141,154289,b=1.4/154826,154905,b=1.4/155004,155121,b=1.4/155169,155329,b=1.4/155778,155837,b=1.4/156155,156305,b=1.4/156327,156352,b=1.4/156374,156482,b=1.4/157134,157520,b=1.4/157610,157815,b=1.4/158853,159249,b=1.4/159378,159557,b=1.4/159742,159903,b=1.3/159992,160211,b=1.3/160399,160482,b=1.4/160624,160748,b=1.4/161358,161530,b=1.4/161590,161630,b=1.4/162093,162211,b=1.4/162879,163074,b=1.4
    Язык : English
    Default : Да
    Forced : Нет
    Коэффициенты матрицы : BT.709
    colour_range : Limited
    Аудио #1
    Идентификатор : 2
    Формат : AC-3
    Формат/Информация : Audio Coding 3
    Расширение режима : CM (complete main)
    Параметр Endianness формата : Big
    Идентификатор кодека : A_AC3
    Продолжительность : 2 ч. 6 м.
    Вид битрейта : Постоянный
    Битрейт : 640 Кбит/сек
    Каналы : 6 каналов
    Расположение каналов : Front: L C R, Side: L R, LFE
    Частота : 48,0 КГц
    Битовая глубина : 16 бит
    Метод сжатия : С потерями
    Размер потока : 581 Мбайт (3%)
    Заголовок : Дублированный
    Язык : Russian
    Default : Да
    Forced : Нет
    Аудио #2
    Идентификатор : 3
    Формат : AC-3
    Формат/Информация : Audio Coding 3
    Расширение режима : CM (complete main)
    Параметр Endianness формата : Big
    Идентификатор кодека : A_AC3
    Продолжительность : 2 ч. 6 м.
    Вид битрейта : Постоянный
    Битрейт : 448 Кбит/сек
    Каналы : 6 каналов
    Расположение каналов : Front: L C R, Side: L R, LFE
    Частота : 48,0 КГц
    Битовая глубина : 16 бит
    Метод сжатия : С потерями
    Размер потока : 406 Мбайт (2%)
    Заголовок : Многоголосый закадровый
    Язык : Russian
    Default : Нет
    Forced : Нет
    Аудио #3
    Идентификатор : 4
    Формат : DTS
    Формат/Информация : Digital Theater Systems
    Режим : 16
    Параметр Endianness формата : Big
    Идентификатор кодека : A_DTS
    Продолжительность : 2 ч. 6 м.
    Вид битрейта : Постоянный
    Битрейт : 1509 Кбит/сек
    Каналы : 6 каналов
    Расположение каналов : Front: L C R, Side: L R, LFE
    Частота : 48,0 КГц
    Битовая глубина : 24 бит
    Метод сжатия : С потерями
    Размер потока : 1,34 Гбайт (6%)
    Заголовок : Одноголосый закадровый (Ю.Сербин)
    Язык : Russian
    Default : Нет
    Forced : Нет
    Аудио #4
    Идентификатор : 5
    Формат : AC-3
    Формат/Информация : Audio Coding 3
    Расширение режима : CM (complete main)
    Параметр Endianness формата : Big
    Идентификатор кодека : A_AC3
    Продолжительность : 2 ч. 6 м.
    Вид битрейта : Постоянный
    Битрейт : 448 Кбит/сек
    Каналы : 6 каналов
    Расположение каналов : Front: L C R, Side: L R, LFE
    Частота : 48,0 КГц
    Битовая глубина : 16 бит
    Метод сжатия : С потерями
    Размер потока : 406 Мбайт (2%)
    Заголовок : Одноголосый закадровый (А.Гаврилов)
    Язык : Russian
    Default : Нет
    Forced : Нет
    Аудио #5
    Идентификатор : 6
    Формат : AC-3
    Формат/Информация : Audio Coding 3
    Расширение режима : CM (complete main)
    Параметр Endianness формата : Big
    Идентификатор кодека : A_AC3
    Продолжительность : 2 ч. 6 м.
    Вид битрейта : Постоянный
    Битрейт : 448 Кбит/сек
    Каналы : 6 каналов
    Расположение каналов : Front: L C R, Side: L R, LFE
    Частота : 48,0 КГц
    Битовая глубина : 16 бит
    Метод сжатия : С потерями
    Размер потока : 406 Мбайт (2%)
    Заголовок : Дублированный
    Язык : Ukrainian
    Default : Нет
    Forced : Нет
    Аудио #6
    Идентификатор : 7
    Формат : DTS
    Формат/Информация : Digital Theater Systems
    Режим : 16
    Параметр Endianness формата : Big
    Идентификатор кодека : A_DTS
    Продолжительность : 2 ч. 6 м.
    Вид битрейта : Постоянный
    Битрейт : 1509 Кбит/сек
    Каналы : 6 каналов
    Расположение каналов : Front: L C R, Side: L R, LFE
    Частота : 48,0 КГц
    Битовая глубина : 24 бит
    Метод сжатия : С потерями
    Размер потока : 1,34 Гбайт (6%)
    Заголовок : Оригинальный
    Язык : English
    Default : Нет
    Forced : Нет
    Текст #1
    Идентификатор : 8
    Формат : UTF-8
    Идентификатор кодека : S_TEXT/UTF8
    Идентификатор кодека/Информация : UTF-8 Plain Text
    Заголовок : Russian (Full)
    Язык : Russian
    Default : Нет
    Forced : Нет
    Текст #2
    Идентификатор : 9
    Формат : UTF-8
    Идентификатор кодека : S_TEXT/UTF8
    Идентификатор кодека/Информация : UTF-8 Plain Text
    Заголовок : Russian (Captions)
    Язык : Russian
    Default : Да
    Forced : Нет
    Текст #3
    Идентификатор : 10
    Формат : UTF-8
    Идентификатор кодека : S_TEXT/UTF8
    Идентификатор кодека/Информация : UTF-8 Plain Text
    Заголовок : Ukrainian
    Язык : Ukrainian
    Default : Нет
    Forced : Нет
    Текст #4
    Идентификатор : 11
    Формат : UTF-8
    Идентификатор кодека : S_TEXT/UTF8
    Идентификатор кодека/Информация : UTF-8 Plain Text
    Заголовок : English (Full)
    Язык : English
    Default : Нет
    Forced : Нет
    Текст #5
    Идентификатор : 12
    Формат : UTF-8
    Идентификатор кодека : S_TEXT/UTF8
    Идентификатор кодека/Информация : UTF-8 Plain Text
    Заголовок : English (SDH)
    Язык : English
    Default : Нет
    Forced : Нет
    Меню
    00:00:00.000 : en:00:00:00.000
    00:11:57.216 : en:00:11:57.216
    00:19:45.101 : en:00:19:45.101
    00:28:09.104 : en:00:28:09.104
    00:35:33.506 : en:00:35:33.506
    00:44:10.398 : en:00:44:10.398
    00:52:21.722 : en:00:52:21.722
    01:01:33.607 : en:01:01:33.607
    01:11:40.087 : en:01:11:40.087
    01:20:39.501 : en:01:20:39.501
    01:27:35.292 : en:01:27:35.292
    01:36:29.575 : en:01:36:29.575
    01:44:34.268 : en:01:44:34.268
    01:53:13.412 : en:01:53:13.412
    01:58:20.552 : en:01:58:20.552
    Скриншоты

    Размер скачиваемого торрента: 21.13 GB (22693109648 Bytes)

    Звездный путь/Star Trek (2009) BDRip 1080p торрент скачать бесплатно
    загрузка...
    Рейтинг →
     (голосов: 1, оценка 5/5, голосовать можно 1 раз )

    Другие торренты по теме:

  • Звездный путь / Star Trek (2009) HDRip-AVC
  • Звездный путь 9: Восстание / Star Trek: Insurrection (1998) BD-Remux 1080p
  • Звездный путь: Фильм / Star Trek: The Motion Picture (1979) BDRip от HQCLUB
  • Звездный путь 3: В поисках Спока / Star Trek III: The Search for Spock (1984) BDRip от HQCLUB
  • Звездный путь 2: Гнев Хана / Star Trek: The Wrath of Khan (1982) BDRip от HQCLUB
  • Звездный путь 4: Дорога домой / Star Trek IV: The Voyage Home (1986) BDRip от HQCLUB
  • Звездный путь 5: Последний рубеж / Star Trek V: The Final Frontier (1989) BDRip от HQCLUB
  • Звездный путь 6: Неоткрытая страна / Star Trek VI: The Undiscovered Country (1991) BDRip от HQCLUB


    • Комментарии (0):

      Информация

      Информация

        Посетители, находящиеся в группе Гости, не могут оставлять комментарии в данной новости.

        ↓ Меню



        ↓ Опрос

        А Вы добавили сайт в закладки?
        Да
        Не


        Top 10 за месяц (Фильмы)