.
Авторизация | Регистрация
» » Герника / Guernica (1978) DVDRip | ИндивИдуалист торрент скачать бесплатно




    Герника / Guernica (1978) DVDRip | ИндивИдуалист торрент скачать бесплатно

    Опубликовал: Админ | Дата: 27-02-2015, 11:10 | Просмотров: 161

    Герника
    Guernica

    Снималось в: Чехословакия
    Категория жанра: драма, короткометражка
    Создали в: 1978
    Время просмотра: 17 минут 7 секунд
    Перевод текста: Любительский одноголосый закадровый -ИндивИдуалист
    Главный режиссёр: Эмир Кустурица/Emir Kusturica


    Актеры

    • Мирослав Выдлак — Роджер
    • Борик Прохазка — отец Роджера
    • Хана Смркова — мать Роджера
    • Карел Аугуста — доктор на медкомиссии
    • Петер Крзак — Жан-Баптист Киршнер, музыкант
    Описание: Европа конца 1930-х годов.
    История мальчика из еврейской семьи. С трудом понимающий реалии окружающего его мира ребенок интуитивно приходит к осознанию ужаса происходящей вокруг него немецкой оккупации сквозь призму знаменитой картины Пабло Пикассо.

    Перевод фильма:animo111;
    Редактура, озвучивание, аудиомонтаж, постер:ИндивИдуалист;

    Отрывок|Мои раздачи

    Качество фильма видео: DVDRip
    Тип видео видео: AVI

    Информация о видео: 704x384 (16:9), 25 кадров/сек, 1427 кбит/сек
    Информация о звуке#1: 44 kHz, МР3, 2/0 (L,R) ch, ~128.00 kbps avgИндивИдуалист
    Информация о звуке#2: 44 kHz, МР3, 2/0 (L,R) ch, ~128.00 kbps avg Оригинал

    Скриншоты





    МИ

    General
    Format : AVI
    Format/Info : Audio Video Interleave
    File size : 208 MiB
    Duration : 17mn 7s
    Overall bit rate : 1 698 Kbps
    Writing application : VirtualDubModRus 1.5.10.2 (build 2542/release)
    Writing library : VirtualDubMod build 2542/release
    Video
    ID : 0
    Format : MPEG-4 Visual
    Format profile : Advanced Simple@L5
    Format settings, BVOP : Yes
    Format settings, QPel : No
    Format settings, GMC : No warppoints
    Format settings, Matrix : Default (H.263)
    Codec ID : XVID
    Codec ID/Hint : XviD
    Duration : 17mn 7s
    Bit rate : 1 427 Kbps
    Width : 704 pixels
    Height : 384 pixels
    Display aspect ratio : 1.85:1
    Frame rate : 25.000 fps
    Color space : YUV
    Chroma subsampling : 4:2:0
    Bit depth : 8 bits
    Scan type : Progressive
    Compression mode : Lossy
    Bits/(Pixel*Frame) : 0.211
    Stream size : 175 MiB (84%)
    Writing library : XviD 1.1.0 (UTC 2005-11-22)
    Audio #1
    ID : 1
    Format : MPEG Audio
    Format version : Version 1
    Format profile : Layer 3
    Mode : Joint stereo
    Codec ID : 55
    Codec ID/Hint : MP3
    Duration : 17mn 7s
    Bit rate mode : Constant
    Bit rate : 128 Kbps
    Channel count : 2 channels
    Sampling rate : 48.0 KHz
    Compression mode : Lossy
    Stream size : 15.7 MiB (8%)
    Alignment : Aligned on interleaves
    Interleave, duration : 40 ms (1.00 video frame)
    Interleave, preload duration : 504 ms
    Audio #2
    ID : 2
    Format : MPEG Audio
    Format version : Version 1
    Format profile : Layer 3
    Mode : Joint stereo
    Codec ID : 55
    Codec ID/Hint : MP3
    Duration : 17mn 7s
    Bit rate mode : Constant
    Bit rate : 128 Kbps
    Channel count : 2 channels
    Sampling rate : 48.0 KHz
    Compression mode : Lossy
    Stream size : 15.7 MiB (8%)
    Alignment : Aligned on interleaves
    Interleave, duration : 40 ms (1.00 video frame)
    Interleave, preload duration : 504 ms

    Вдумчивого просмотра! = )
    Размер скачиваемого торрента: 207.83 MB (217921536 Bytes)

    Герника/Guernica (1978) DVDRip | ИндивИдуалист торрент скачать бесплатно
    загрузка...
    Рейтинг →
     (голосов: 1, оценка 5/5, голосовать можно 1 раз )

    Другие торренты по теме:

  • Древо Герники / Larbre de Guernica (1975) DVDRip | A скачать через торрент бесплатно
  • Герника / Gernika (2016) WEB-DLRip | L скачать торрент бесплатно
  • Герника / Gernika (2016) WEB-DL 1080p | L скачать торрент бесплатно
  • Герника / Gernika (2016) WEB-DL 1080p | P скачать торрент бесплатно
  • Герника / Gernika (2016) WEB-DLRip от Portablius | Line скачать торрент бесплатно
  • Герника / Gernika (2016) WEB-DL 1080p | P скачать торрент бесплатно
  • Герника / Gernika (2016) WEB-DLRip от MegaPeer | P скачать торрент бесплатно
  • Герника / Gernika (2016) DVDRip-AVC от ExKinoRay | P скачать торрент бесплатно


    • Комментарии (0):

      Информация

      Информация

        Посетители, находящиеся в группе Гости, не могут оставлять комментарии в данной новости.

        ↓ Меню



        ↓ Опрос

        А Вы добавили сайт в закладки?
        Да
        Не


        Top 10 за неделю (Фильмы)