.
Авторизация | Регистрация
Хочешь лучшие торренты? Добавь свой email!
Добавить
» » Ходячие мертвецы / The Walking Dead (2014) WEB-DLRip-AVC | P | Fox Crime торрент скачать бесплатно




    Ходячие мертвецы / The Walking Dead (2014) WEB-DLRip-AVC | P | Fox Crime торрент скачать бесплатно

    Опубликовал: Админ | Дата: 27-02-2015, 11:10 | Просмотров: 115




    Русское название:Ходячие мертвецы
    Русское название в мировом прокате:The Walking Dead
    Создали в:2014
    Категория жанра:Мистический триллер, ужасы, зомби
    Главный режиссер:Эрнест Р. Дикерсон, Гай Ферленд, Гвинет Хордер-Пэйтон

    Актеры
    Эндрю Линкольн, Скотт Уилсон, Данай Джекесай Гурира, Дэвид Моррисси, Стивен Юн, Лорен Коэн, Чендлер Риггз, Норман Ридус, Мелисса Сюзанн МакБрайд, Эмили Кинни, Чад Коулмэн, Сонеква Мартин


    Сериал рассказывает историю жизни семьи шерифа после того, как зомби — эпидемия апокалипсических масштабов захлестнула земной шар. Шериф Рик Грайм путешествует со своей семьей и небольшой группой выживших в поисках безопасного места для жизни. Но постоянный страх смерти каждый день приносит тяжелые потери, заставляя героев почувствовать глубины человеческой жестокости. Рик пытается спасти свою семью, и открывает для себя, что всепоглощающий страх тех, кто выжил, может быть опаснее бессмысленных мертвецов, бродящих по земле. Команда Рика продолжит борьбу за выживание в условиях зомби-апокалипсиса спустя несколько месяцев после решающей битвы с одноглазым Губернатором. Жить в заброшенной тюрьме, которая стала приютом для главных героев, становится всё опаснее — зомби всё чаще прорываются за ограждения. Поэтому главные герои надумают снова переселиться. В конце третьего сезон любимого сериалаа к группе Рика присоединилось много беглецов из города Вудбэри, поэтому количество новых персонажей четвёртого сезон любимого сериалаа заметно увеличится.



    Снималось в:США
    Киностудия:Kripke Enterprises, Warner Bros. Television, Wonderland Sound and Vision, Supernatural Films
    Время просмотра:11 х ~ 00:43:00
    Перевод текста:Профессиональный многоголосый


    Файл
    Тип видео:MKV
    Кодек для видео:MPEG-4 AVC
    Качество фильма:WEB-DLRip (AVC)
    Информация о видео:1024x576 ~ 2000 Кбит/с
    Информация о звуке:Русский (АС3, 6 ch, 384 Кбит/c)
    Автор рипа:


    Инфо-файлик

    Общее
    Уникальный идентификатор : 30783052876026461549556428305258859682 (0x172899AF50E3CF0A41489CC78F814CA2)
    Полное имя : D:ВидеоХодячие мертвецыThe.Walking.Dead.S05E05.mkv
    Формат : Matroska
    Версия формата : Version 2
    Размер файла : 727 Мбайт
    Продолжительность : 42 м.
    Общий поток : 2364 Кбит/сек
    Дата кодирования : UTC 2014-11-10 19:59:14
    Программа кодирования : Lavf54.63.104
    Библиотека кодирования : Lavf54.63.104
    Видео
    Идентификатор : 1
    Формат : AVC
    Формат/Информация : Advanced Video Codec
    Профиль формата : Main@L3.1
    Параметр CABAC формата : Да
    Параметр ReFrames формата : 1 кадр
    Идентификатор кодека : V_MPEG4/ISO/AVC
    Продолжительность : 42 м.
    Битрейт : 2000 Кбит/сек
    Ширина : 1024 пикселя
    Высота : 576 пикселей
    Соотношение сторон : 16:9
    Режим частоты кадров : Постоянный
    Частота кадров : 23,976 кадра/сек
    Цветовое пространство : YUV
    Субдискретизация насыщенности : 4:2:0
    Битовая глубина : 8 бит
    Тип развёртки : Прогрессивная
    Бит/(Пиксели*Кадры) : 0.141
    Размер потока : 594 Мбайт (82%)
    Библиотека кодирования : x264 core 129
    Настройки программы : cabac=1/ref=1/deblock=1:0:0/analyse=0x1:0x131/me=dia/subme=2/psy=1/psy_rd=1.00:0.00/mixed_ref=0/me_range=16/chroma_me=1/trellis=0/8x8dct=0/cqm=0/deadzone=21,11/fast_pskip=1/chroma_qp_offset=0/threads=4/lookahead_threads=1/sliced_threads=0/nr=0/decimate=1/interlaced=0/bluray_compat=0/constrained_intra=0/bframes=0/weightp=2/keyint=250/keyint_min=25/scenecut=40/intra_refresh=0/rc_lookahead=40/rc=abr/mbtree=1/bitrate=2000/ratetol=1.0/qcomp=0.60/qpmin=10/qpmax=51/qpstep=4/ip_ratio=1.41/aq=1:1.00
    Default : Да
    Forced : Нет
    Аудио
    Идентификатор : 2
    Формат : AC-3
    Формат/Информация : Audio Coding 3
    Расширение режима : CM (complete main)
    Параметр Endianness формата : Big
    Идентификатор кодека : A_AC3
    Продолжительность : 42 м.
    Вид битрейта : Постоянный
    Битрейт : 384 Кбит/сек
    Каналы : 6 каналов
    Расположение каналов : Front: L C R, Side: L R, LFE
    Частота : 48,0 КГц
    Битовая глубина : 16 бит
    Метод сжатия : С потерями
    Размер потока : 118 Мбайт (16%)
    Default : Да
    Forced : Нет



    Скриншоты




    Размер скачиваемого торрента: 7.80 GB (8379001622 Bytes)

    Ходячие мертвецы/The Walking Dead (2014) WEB-DLRip-AVC | P | Fox Crime торрент скачать бесплатно
    загрузка...
    Рейтинг →
     (голосов: 1, оценка 5/5, голосовать можно 1 раз )

    Другие торренты по теме:

  • Ходячие мертвецы / The Walking Dead (2012) WEB-DLRip-AVC | Fox Crime, LostFilm, Кубик в Кубе
  • Ходячие мертвецы / The Walking Dead (2011) BDRip от HQ-ViDEO
  • OST - Ходячие мертвецы / The Walking Dead (2010 - 2013) MP3
  • Ходячие Мертвецы / The Walking Dead (2013) HDTVRip-AVC | Трейлер
  • Ходячие Мертвецы / The Walking Dead (2013) HDTV 720p скачать через торрент бесплатно
  • Ходячие Мертвецы / The Walking Dead (Webisodes) Season 3 (2013) BDRip 1080p скачать через торрент бесплатно
  • Ходячие мертвецы / The Walking Dead (2012-2013) WEB-DLRip-AVC 1080p l Fox Crime скачать через торрент бесплатно
  • Ходячие мертвецы / The Walking Dead (2013) WEB-DLRip от Scarabey | LostFilm скачать через торрент бесплатно


    • Комментарии (0):

      Информация

      Информация

        Посетители, находящиеся в группе Гости, не могут оставлять комментарии в данной новости.

        ↓ Меню



        ↓ Опрос

        А Вы добавили сайт в закладки?
        Да
        Не


        Top 10 за месяц (Фильмы)