.
Авторизация | Регистрация
Хочешь лучшие торренты? Добавь свой email!
Добавить
» » Когда зовёт сердце / When Calls the Heart (2013) HDTVRip | ИндивИдуалист скачать через торрент бесплатно




    Когда зовёт сердце / When Calls the Heart (2013) HDTVRip | ИндивИдуалист скачать через торрент бесплатно

    Опубликовал: Админ | Дата: 27-02-2015, 11:10 | Просмотров: 182

    Когда зовёт сердце
    When Calls the Heart

    Снималось в: США
    Категория жанра: Драма, экранизация, приключения
    Создали в: 2013
    Время просмотра: 01:23:20
    Перевод текста: Любительский одноголосый закадровый -ИндивИдуалист
    Главный режиссёр: Майкл Лэндон (младший)/Michael Landon Jr.


    Актеры
    Стивен Амелл, Мэгги Грэйс, Лори Лафлин, Дэниэл Шарман, Джин Смарт, Наташа Калис, Кристофер Вилльерс, Шери Лунги, Ли Уильямс, Поппи Дрейтон
    Описание: По роману Джанетт Ок (Janette Oke).Элизабет Тэтчер — молодая школьная учительница из богатой семьи. Она уезжает из большого города, чтобы преподавать в школе в маленьком шахтёрском городке…
    Данный фильм является предысторией к сериалу Когда зовёт сердце, который вышел в США в январе 2014, премьера этого фильма состоялась 19 октября 2013 на телеканале Холлмарк.

    Перевод фильма:gojungle, animaglory;
    Редактура, озвучивание, аудиомонтаж, русификация постера:ИндивИдуалист;

    Отрывок|1,5ГБ|Мои раздачи

    Качество фильма видео: HDTVRip
    Тип видео видео: AVI
    Информация о видео: XviD, 624x352 (16:9), 29.97fps, 1 110 Kbps
    Информация о звуке#1: 48 kHz, МР3, 2/0 (L,R) ch, ~128.00 kbps avgИндивИдуалист

    Скриншоты





    МИ

    General
    Format : AVI
    Format/Info : Audio Video Interleave
    File size : 749 MiB
    Duration : 1h 23mn
    Overall bit rate : 1 249 Kbps
    Writing application : VirtualDubModRus 1.5.10.2 (build 2542/release)
    Writing library : VirtualDubMod build 2542/release
    Video
    ID : 0
    Format : MPEG-4 Visual
    Format profile : Advanced Simple@L5
    Format settings, BVOP : 2
    Format settings, QPel : No
    Format settings, GMC : No warppoints
    Format settings, Matrix : Custom
    Codec ID : XVID
    Codec ID/Hint : XviD
    Duration : 1h 23mn
    Bit rate : 1 110 Kbps
    Width : 624 pixels
    Height : 352 pixels
    Display aspect ratio : 16:9
    Frame rate : 29.970 fps
    Color space : YUV
    Chroma subsampling : 4:2:0
    Bit depth : 8 bits
    Scan type : Progressive
    Compression mode : Lossy
    Bits/(Pixel*Frame) : 0.169
    Stream size : 666 MiB (89%)
    Writing library : XviD 73
    Audio
    ID : 1
    Format : MPEG Audio
    Format version : Version 1
    Format profile : Layer 3
    Mode : Joint stereo
    Mode extension : MS Stereo
    Codec ID : 55
    Codec ID/Hint : MP3
    Duration : 1h 23mn
    Bit rate mode : Constant
    Bit rate : 128 Kbps
    Channel(s) : 2 channels
    Sampling rate : 48.0 KHz
    Compression mode : Lossy
    Stream size : 76.3 MiB (10%)
    Alignment : Aligned on interleaves
    Interleave, duration : 34 ms (1.01 video frame)
    Interleave, preload duratio : 504 ms

    Приятного просмотра! = )
    Размер скачиваемого торрента: 749.31 MB (785713152 Bytes)

    Когда зовёт сердце/When Calls the Heart (2013) HDTVRip | ИндивИдуалист скачать через торрент бесплатно
    загрузка...
    Рейтинг →
     (голосов: 1, оценка 5/5, голосовать можно 1 раз )

    Другие торренты по теме:

  • Что Где Когда Летняя серия (2017) HDTVRip от GeneralFim
  • Что Где Когда Летняя серия (2017) HDTV 1080i от GeneralFilm
  • Когда звери мечтают / Когда животные видят сны / Nar dyrene drommer скачать через торрент бесплатно
  • Когда человек влюблен / Когда мужчина влюблён / Nam-ja-ga sa-rang-hal dae / When a Mans in Love (2013) HDTVRip | L2 скачать через торрент бесплатно
  • Кумиры - Вениамин Смехов - Когда я был Атосом. Юрий Любимов (2005) MP3
  • Когда мы встретились / Jab We Met (2007) BDRip-AVC от Тorrent-Хzona | P
  • Когда Санта упал на Землю / Als der Weihnachtsmann vom Himmel fiel (2011) HDRip | P
  • Когда плачут цикады: разгадки / Higurashi no Naku Koro ni Kai (2007) DVDRip | L2


    • Комментарии (0):

      Информация

      Информация

        Посетители, находящиеся в группе Гости, не могут оставлять комментарии в данной новости.

        ↓ Меню



        ↓ Опрос

        А Вы добавили сайт в закладки?
        Да
        Не


        Top 10 за месяц (Фильмы)