.
Авторизация | Регистрация
» » Скандал / Scandal (2015) WEBDLRip | Fox Life скачать через торрент бесплатно




    Скандал / Scandal (2015) WEBDLRip | Fox Life скачать через торрент бесплатно

    Опубликовал: Админ | Дата: 27-02-2015, 11:10 | Просмотров: 148


    Детально о кино
    Русское название:Скандал
    Русское название в мировом прокате:Scandal
    Создали в:2015
    Категория жанра:драма
    Главный режиссер:Том Верика, Стив Робин, Оливер Бокельберг

    Актеры
    Керри Вашингтон, Генри Йен Кьюсик, Коламбус Шорт, Дэрби Стэнчфилд, Кэти Лоус, Гильермо Диас, Джефф Перри, Тони Голдуин, Джошуа Малина, Беллами Янг, Мэтт Летчер, Лиза Вейл

    Сюжет фильма

    Специалист по связям с общественностью Оливия Поуп, ранее работавшая на президента США, создает свое антикризисное агенство, цель которого — устранять проблемы высокопоставленных клиентов до того, как они станут всеобщим достоянием.

    Снималось в:США
    Время просмотра:~ 45 минут серия
    Перевод текста:Профессиональный многоголосый закадровый (Fox Life)
    Файл
    Кодек для видео:XvID/MP3
    Качество фильма:WEBDLRip
    Информация о видео:MPEG4, XviD, 720x400 (16:9), 23.976 fps, 1 351 Kbps (0.196 bit/pixel)
    Информация о звуке:
    Аудио #1: MP3, 48.0 KHz, 2 ch, 128 Kbps, CBR rus
    Аудио #2: MP3, 48.0 KHz, 2 ch, 128 Kbps, CBR eng
    Скриншоты
    Screenshots
    MediaInfo
    General
    Complete name : /Скандал (сезон любимого сериала 4) Scandal (2014) WEB-DLRip - NewStudio/Scandal.s04e01.WEBDLRip.NewStudio.TV.avi
    Format : AVI
    Format/Info : Audio Video Interleave
    File size : 499 MiB
    Duration : 43mn 3s
    Overall bit rate : 1 621 Kbps
    Writing application : VirtualDubMod 1.5.10.2 (build 2540/release)
    Writing library : VirtualDubMod build 2540/release
    Video
    ID : 0
    Format : MPEG-4 Visual
    Format profile : Advanced Simple@L5
    Format settings, BVOP : 2
    Format settings, QPel : No
    Format settings, GMC : No warppoints
    Format settings, Matrix : Default (MPEG)
    Codec ID : XVID
    Codec ID/Hint : XviD
    Duration : 43mn 3s
    Bit rate : 1 351 Kbps
    Width : 720 pixels
    Height : 400 pixels
    Display aspect ratio : 16:9
    Frame rate : 23.976 fps
    Color space : YUV
    Chroma subsampling : 4:2:0
    Bit depth : 8 bits
    Scan type : Progressive
    Compression mode : Lossy
    Bits/(Pixel*Frame) : 0.196
    Stream size : 416 MiB (83%)
    Writing library : XviD 64
    Audio #1
    ID : 1
    Format : MPEG Audio
    Format version : Version 1
    Format profile : Layer 3
    Mode : Joint stereo
    Mode extension : MS Stereo
    Codec ID : 55
    Codec ID/Hint : MP3
    Duration : 43mn 3s
    Bit rate mode : Constant
    Bit rate : 128 Kbps
    Channel(s) : 2 channels
    Sampling rate : 48.0 KHz
    Compression mode : Lossy
    Stream size : 39.4 MiB (8%)
    Alignment : Aligned on interleaves
    Interleave, duration : 42 ms (1.00 video frame)
    Interleave, preload duration : 504 ms
    Audio #2
    ID : 2
    Format : MPEG Audio
    Format version : Version 1
    Format profile : Layer 3
    Mode : Joint stereo
    Mode extension : MS Stereo
    Codec ID : 55
    Codec ID/Hint : MP3
    Duration : 43mn 3s
    Bit rate mode : Constant
    Bit rate : 128 Kbps
    Channel(s) : 2 channels
    Sampling rate : 48.0 KHz
    Compression mode : Lossy
    Stream size : 39.4 MiB (8%)
    Alignment : Aligned on interleaves
    Interleave, duration : 42 ms (1.00 video frame)
    Interleave, preload duration : 504 ms
    Раздача ведётся путём добавления новых серий
    Раздача ведётся путём добавления новых серий; при каждом добавлении создаётся новый торрент. Чтобы начать докачку новой серии, пользователям необходимо сделать следующее:
    (1) остановить скачивание,
    (2) удалить старый торрент у себя из клиента (старые серии удалять не надо),
    (3) скачать новый торрент и запустить его у себя в клиенте вместо старого, при этом указать клиенту путь в старую папку куда и должно происходить скачивание новых серий.
    Ваш клиент при этом должен произвести хеширование (проверку) старой папки (если не производит сам - помогите ему сделать это), и будет докачивать только те серии которых у вас ещё нет. Старые серии при этом не удаляются, а продолжают раздаваться!
    Eсли вы уже удалили старые серии, то предотвратить повторную закачку старых серий можно, отжав галочку в соответствующих местах при запуске нового торрента. По возможности, желательно не удалять старые серии как можно дольше чтобы релизёр не столько продолжал раздавать старые серии, а смог сконцентрироваться на новых.

    Размер скачиваемого торрента: 1.46 GB (1570560000 Bytes)

    Скандал/Scandal (2015) WEBDLRip | Fox Life скачать через торрент бесплатно
    загрузка...
    Рейтинг →
     (голосов: 1, оценка 3/5, голосовать можно 1 раз )

    Другие торренты по теме:



      Комментарии (0):

      Информация

      Информация

        Посетители, находящиеся в группе Гости, не могут оставлять комментарии в данной новости.

        ↓ Меню



        ↓ Опрос

        А Вы добавили сайт в закладки?
        Да
        Не


        Top 10 за неделю (Фильмы)