.
Авторизация | Регистрация
» » Животное / Animal (2014) HDRip от AleksSin | L1 скачать через торрент бесплатно




    Животное / Animal (2014) HDRip от AleksSin | L1 скачать через торрент бесплатно

    Опубликовал: Админ | Дата: 27-02-2015, 11:10 | Просмотров: 95


    Детально о кино
    Русское название:Животное/Зверюга
    Русское название в мировом прокате:Animal
    Создали в:2014
    Категория жанра:ужасы, триллер
    Главный режиссер:Бретт Симмонс

    Актеры
    Джереми Самптер, Джои Лорен, Эдамс Элизабет, Гиллис Паркер, Янг Кеке, Палмер Амори, Ноласко Пол, Яконо Ив, Торстен Кэй

    Сюжет фильма

    Группа друзей хотела просто весело провести выходные, а в итоге они оказались в незнакомой местности, преследуемые грозным, жаждущим крови хищником…

    Снималось в:США
    Киностудия:Chiller Films, Flower Films (II), Synthetic Cinema International
    Время просмотра:01:21:57
    Перевод текста:Любительский одноголосый (den904), любительский одноголосый (Xixidok)
    Примечание:Присутствует ненормативная лексика в переводе (den904)
    Файл
    Кодек для видео:AVI (XviD)
    Качество фильма:HDRip (Исх. BDRip 720p)
    Информация о видео:720x304 (2.37:1), 23.976 fps, XviD build 73 ~2135 kbps avg, 0.41 bit/pixel
    Audio #1:48 kHz, AC3 Dolby Digital, 2/0 (L,R) ch, ~192.00 kbps avg (den904)
    Audio #2:48 kHz, AC3 Dolby Digital, 2/0 (L,R) ch, ~192.00 kbps avg (Xixidok)
    Субтитры:Русские (на песню в титрах), английские (отдельно)
    Семпл
    MediaInfo

    Общее
    Полное имя : S:ФильмыЖивотное (Зверюга). 2014. HDRip. (AleksSin)Животное (Зверюга). 2014. HDRip. (AleksSin).avi
    Формат : AVI
    Формат/Информация : Audio Video Interleave
    Размер файла : 1,45 Гбайт
    Продолжительность : 1 ч. 21 м.
    Общий поток : 2534 Кбит/сек
    Программа кодирования : VirtualDubModRus 1.5.10.2 (build 2542/release)
    Библиотека кодирования : VirtualDubMod build 2542/release
    Видео
    Идентификатор : 0
    Формат : MPEG-4 Visual
    Профиль формата : Advanced Simple@L5
    Параметр BVOP формата : 1
    Параметр QPel формата : Нет
    Параметр GMC формата : Без точки перехода
    Параметр матрицы формата : Выборочная
    Идентификатор кодека : XVID
    Идентификатор кодека/Подсказка : XviD
    Продолжительность : 1 ч. 21 м.
    Битрейт : 2135 Кбит/сек
    Ширина : 720 пикс.
    Высота : 304 пикс.
    Соотношение сторон : 2,35:1
    Частота кадров : 23,976 кадр/сек
    Цветовое пространство : YUV
    Подвыборка цветности : 4:2:0
    Битовая глубина : 8 бит
    Тип развёртки : Прогрессивная
    Метод сжатия : С потерями
    Бит/(Пиксели*Кадры) : 0.407
    Размер потока : 1,22 Гбайт (84%)
    Библиотека кодирования : XviD 73
    Аудио #1
    Идентификатор : 1
    Формат : AC-3
    Формат/Информация : Audio Coding 3
    Расширение режима : CM (complete main)
    Идентификатор кодека : 2000
    Продолжительность : 1 ч. 21 м.
    Вид битрейта : Постоянный
    Битрейт : 192 Кбит/сек
    Каналы : 2 канала
    Расположение каналов : Front: L R
    Частота : 48,0 КГц
    Битовая глубина : 16 бит
    Метод сжатия : С потерями
    Размер потока : 113 Мбайт (8%)
    Выравнивание : Разделение по промежуткам
    Продолжительность промежутка : 42 мс. (1,00 видеокадр)
    Время предзагрузки промежутка : 500 ms
    Аудио #2
    Идентификатор : 2
    Формат : AC-3
    Формат/Информация : Audio Coding 3
    Расширение режима : CM (complete main)
    Идентификатор кодека : 2000
    Продолжительность : 1 ч. 21 м.
    Вид битрейта : Постоянный
    Битрейт : 192 Кбит/сек
    Каналы : 2 канала
    Расположение каналов : Front: L R
    Частота : 48,0 КГц
    Битовая глубина : 16 бит
    Метод сжатия : С потерями
    Размер потока : 113 Мбайт (8%)
    Выравнивание : Разделение по промежуткам
    Продолжительность промежутка : 42 мс. (1,00 видеокадр)
    Время предзагрузки промежутка : 500 ms

    Скриншоты

    Релиз подготовил:
    Залил: *AleksSin*
    Размер скачиваемого торрента: 1.45 GB (1557672042 Bytes)

    Животное/Animal (2014) HDRip от AleksSin | L1 скачать через торрент бесплатно
    загрузка...
    Рейтинг →
     (голосов: 1, оценка 3/5, голосовать можно 1 раз )

    Другие торренты по теме:

  • Эндрю Клив - Удивительные животные (1995) PNG от RG Superdetki торрент скачать бесплатно
  • Эйс Вентура: Розыск домашних животных / Ace Ventura: Pet Detective (1993) HDTVRip | D торрент скачать бесплатно
  • Школьник Ю. К. - Животные. Полная энциклопедия (2007) DJVU торрент скачать бесплатно
  • Кладбище домашних животных / Pet Sematary (1989) BDRip-AVC от HQCLUB торрент скачать бесплатно
  • Эксмо - Вымершие животные. Полная энциклопедия (2007) DJVU торрент скачать бесплатно
  • Анатомия крупнейших животных: Большие кошки / Inside Natures Giants: Big Cats (2012) HDTVRip-AVC от Тorrent-Хzona торрент скачать бесплатно
  • Живая тема. Бессмертие животных (2013) SATRip торрент скачать бесплатно
  • Животные-рекордсмены / Ultimate Animal Countdown (2012) SATRip | P1 торрент скачать бесплатно


    • Комментарии (0):

      Информация

      Информация

        Посетители, находящиеся в группе Гости, не могут оставлять комментарии в данной новости.

        ↓ Меню



        ↓ Опрос

        А Вы добавили сайт в закладки?
        Да
        Не


        Top 10 за неделю (Фильмы)