.
Авторизация | Регистрация
Хочешь лучшие торренты? Добавь свой email!
Добавить




Василиса (2014) DVD-9 скачать через торрент бесплатно

Опубликовал: Админ | Дата: 27-02-2015, 11:10 | Просмотров: 226


Детально о кино
Русское название в мировом прокате:Василиса
Создали в:2014
Категория жанра:Исторический
Главный режиссер:Антон Сиверс

Актеры
Светлана Ходченкова, Дмитрий Соломыкин, Жером Кузан, Кристина Кузьмина, Игорь Черневич, Андрей Ильин, Ирина Розанова, Илья Носков, Андрей Носков, Жоанн Морио, Оливье Сиу, Сесиль Мари Жендр, Ксения Разина, Коля Спиридонов, Фёдор Никитин, Валерий Немешаев, Юрий Кузнецов, Алексей Барабаш, Владимир Матвеев, Юрий Батурин

Сюжет фильма
Он дворянин, а она — крепостная крестьянка… Им не суждено быть вместе. Возможно, так и закончилась бы эта любовная история, если бы не война. Наполеон вторгся в пределы Российской Империи, и этот день изменил привычный уклад и сословные предрассудки. Мир больше никогда не станет прежним. Война пишет новую историю любви.

Снималось в:Россия
Киностудия:Всемирные Русские Студии
Время просмотра:01:39:50
Язык:Русский
Файл
Кодек для видео:MPEG-2
Качество фильма:DVD-9
Информация о видео:MPEG2, PAL 16:9 (720x576) VBR, 24,000 кадр/с
Информация о звуке:Русский DD 5.1 (448 Kbps)
Меню
DVDInfo
Title:
Size: 5.82 Gb ( 6 101 646 KBytes ) - DVD-9
Enabled regions: 1, 2, 3, 4, 5, 6, 7, 8
VTS_01 :
Play Length: 01:39:50
Video: PAL 16:9 (720x576) VBR, Auto PanScan
Audio:
Russian (Dolby AC3, 6 ch)
Menu Video:
PAL 4:3 (704x576) VBR
Menu English Language Unit :
Root Menu
MediaInfo
Общее
Полное имя : D:ААА2ВАСИЛИСАVIDEO_TSVTS_01_1.VOB
Формат : MPEG-PS
Размер файла : 1000 Мбайт
Продолжительность : 17 м.
Режим общего битрейта : Переменный
Общий поток : 8107 Кбит/сек
Видео
Идентификатор : 224 (0xE0)
Формат : MPEG Video
Версия формата : Version 2
Профиль формата : Main@Main
Параметр BVOP формата : Да
Параметр матрицы формата : По умолчанию
Параметр GOP формата : M=3, N=12
Продолжительность : 17 м.
Вид битрейта : Переменный
Битрейт : 7498 Кбит/сек
Максимальный битрейт : 8816 Кбит/сек
Ширина : 720 пикселей
Высота : 576 пикселей
Соотношение сторон : 16:9
Частота кадров : 24,000 кадра/сек
Стандарт вещания : PAL
Цветовое пространство : YUV
Субдискретизация насыщенности : 4:2:0
Битовая глубина : 8 бит
Тип развёртки : Прогрессивная
Порядок развёртки : 2:2:2:2:2:2:2:2:2:2:2:3 Pulldown
Метод сжатия : С потерями
Бит/(Пиксели*Кадры) : 0.753
TimeCode_FirstFrame : 00:00:00:00
TimeCode_Source : Group of pictures t_head
Размер потока : 925 Мбайт (92%)
Аудио
Идентификатор : 189 (0xBD)-128 (0x80)
Формат : AC-3
Формат/Информация : Audio Coding 3
Расширение режима : CM (complete main)
Параметр Endianness формата : Big
Режим смешивания : DVD-Video
Продолжительность : 17 м.
Вид битрейта : Постоянный
Битрейт : 448 Кбит/сек
Каналы : 6 каналов
Расположение каналов : Front: L C R, Side: L R, LFE
Частота : 48,0 КГц
Битовая глубина : 16 бит
Метод сжатия : С потерями
Размер потока : 55,3 Мбайт (6%)
Меню



Скриншоты

Релиз:
Залил: YArl
Размер скачиваемого торрента: 5.82 GB (6248085504 Bytes)

Василиса (2014) DVD-9 скачать через торрент бесплатно
загрузка...
Рейтинг →
 (голосов: 1, оценка 5/5, голосовать можно 1 раз )

Другие торренты по теме:

  • Василиса скачать через торрент бесплатно
  • Василиса (2014) HDTV 1080i от GeneralFilm | Расширенная Телеверсия
  • Василиса (2014) HDTVRip от GeneralFilm | Расширенная Телеверсия
  • Василиса (2014) HDTVRip 720p | Расширенная Телеверсия
  • Василиса (2014) WEB-DLRip от MegaPeer | Расширенная телеверсия
  • Василиса (2015) WEB-DL 720p от MediaClub | Расширенная Телеверсия
  • Василиса (2015) HDTVRip (AVC) от Files-х | Расширенная Телеверсия
  • Василиса (2014) Blu-ray 1080p | Лицензия


    • Комментарии (0):

      Информация

      Информация

        Посетители, находящиеся в группе Гости, не могут оставлять комментарии в данной новости.

        ↓ Меню



        ↓ Опрос

        А Вы добавили сайт в закладки?
        Да
        Не


        Top 10 за месяц (Фильмы)