.
Авторизация | Регистрация
Хочешь лучшие торренты? Добавь свой email!
Добавить




Гость / The Guest (2014) DVD9 торрент скачать бесплатно

Опубликовал: Админ | Дата: 27-02-2015, 11:10 | Просмотров: 203


Детально о кино
Русское название:Гость
Русское название в мировом прокате:The Guest
Создали в:2014
Категория жанра:Боевик
Главный режиссер:Адам Вингард

Актеры
Дэн Стивенс, Майка Монро, Брендан Мейер, Шейла Келли, Лиленд Орсер, Лэнс Реддик, Табата Шон, Чейз Уильямсон, Джоэл Мур, Стивен Браун

Сюжет фильма
В семью, потерявшую на войне своего сына и брата, приезжает незнакомец. Он представляется сослуживцем погибшего и напрашивается погостить у них несколько дней, чтобы познакомиться поближе, а заодно рассказать о своей службе. Незнакомец очень приветлив и добр к каждому из членов семьи и при каждом удобном случае старается чем-то помочь. Однако вскоре эта помощь становится все более и более радикальной…

Снималось в:США
Киностудия:Snoot Entertainment
Время просмотра:01:40:24
Перевод текста:Дублированный, авторский (Матвеев)
Файл
Кодек для видео:MPEG-2
Качество фильма:DVD-9
Информация о видео:MPEG2, PAL 16:9 (720x576) VBR, 24,000 кадр/с
Информация о звуке:Русский/Английский DD 5.1 (384 Kbps), русский DD 5.1 (448 Kbps)
Меню
DVDInfo
Title:
Size: 5.78 Gb ( 6 065 868 KBytes ) - DVD-9
Enabled regions: 1, 2, 3, 4, 5, 6, 7, 8
VTS_01 :
Play Length: 01:40:24
Video: PAL 16:9 (720x576) VBR, Auto PanScan
Audio:
Russian (Dolby AC3, 6 ch)
Russian (Dolby AC3, 6 ch)
English (Dolby AC3, 6 ch)
Menu Video:
PAL 4:3 (704x576) VBR
Menu English Language Unit :
Root Menu
MediaInfo
Формат : AC-3
Формат/Информация : Audio Coding 3
Расширение режима : CM (complete main)
Параметр Endianness формата : Big
Режим смешивания : DVD-Video
Продолжительность : 17 м.
Вид битрейта : Постоянный
Битрейт : 384 Кбит/сек
Каналы : 6 каналов
Расположение каналов : Front: L C R, Side: L R, LFE
Частота : 48,0 КГц
Битовая глубина : 16 бит
Метод сжатия : С потерями
Размер потока : 48,7 Мбайт (5%)
Аудио #2
Идентификатор : 189 (0xBD)-129 (0x81)
Формат : AC-3
Формат/Информация : Audio Coding 3
Расширение режима : CM (complete main)
Параметр Endianness формата : Big
Режим смешивания : DVD-Video
Продолжительность : 17 м.
Вид битрейта : Постоянный
Битрейт : 448 Кбит/сек
Каналы : 6 каналов
Расположение каналов : Front: L C R, Side: L R, LFE
Частота : 48,0 КГц
Битовая глубина : 16 бит
Метод сжатия : С потерями
Размер потока : 56,8 Мбайт (6%)
Аудио #3
Идентификатор : 189 (0xBD)-130 (0x82)
Формат : AC-3
Формат/Информация : Audio Coding 3
Расширение режима : CM (complete main)
Параметр Endianness формата : Big
Режим смешивания : DVD-Video
Продолжительность : 17 м.
Вид битрейта : Постоянный
Битрейт : 384 Кбит/сек
Каналы : 6 каналов
Расположение каналов : Front: L C R, Side: L R, LFE
Частота : 48,0 КГц
Битовая глубина : 16 бит
Метод сжатия : С потерями
Размер потока : 48,7 Мбайт (5%)
Меню




Скриншоты

Релиз:
Залил: YArl
Размер скачиваемого торрента: 5.78 GB (6211448832 Bytes)

Гость/The Guest (2014) DVD9 торрент скачать бесплатно
загрузка...
Рейтинг →
 (голосов: 1, оценка 3/5, голосовать можно 1 раз )

Другие торренты по теме:

  • Каменный Гость - 60 / 70 (2012) MP3
  • Гость / The Caller (2011) BDRip 720p от IRONCLUB | P
  • Гость / The Caller (2011) BDRip 1080p от R.G.GoldenShara
  • Незваный гость / Atithi Tum Kab Jaoge (2010) SATRip от Files-x | P
  • Гость / Linvite (2007) DVDRip от Brazzass
  • Гость / The Caller (2011) BDRip от Rulya74 | P, P2
  • Незваный гость / El habitante incierto (2004) DVDRip от FilmRus | A скачать через торрент бесплатно
  • Гость / The Guest


    • Комментарии (0):

      Информация

      Информация

        Посетители, находящиеся в группе Гости, не могут оставлять комментарии в данной новости.

        ↓ Меню



        ↓ Опрос

        А Вы добавили сайт в закладки?
        Да
        Не


        Top 10 за месяц (Фильмы)