.
Авторизация | Регистрация
Хочешь лучшие торренты? Добавь свой email!
Добавить
» » С любовью, Рози / Love, Rosie (2014) WEB-DLRip-AVC | A скачать через торрент бесплатно




    С любовью, Рози / Love, Rosie (2014) WEB-DLRip-AVC | A скачать через торрент бесплатно

    Опубликовал: Админ | Дата: 27-02-2015, 11:10 | Просмотров: 207


    Детально о кино
    Русское название:С любовью, Рози
    Русское название в мировом прокате:Love, Rosie
    Создали в:2014
    Категория жанра:мелодрама, комедия
    Главный режиссер:Кристиан Диттер

    Актеры
    Сэм Клафлин, Лили Коллинз, Сьюки Уотерхаус, Тэмзин Эджертон, Арт Паркинсон, Кристиан Кук, Джэми Уинстон, Лили Лэйт, Ник Ли, Джейк Мэнли

    Сюжет фильма

    Рози и Алекс были лучшими друзьями с детства, и теперь, по окончании школы, собираются вместе продолжить учебу в университете.
    Однако в их судьбах происходит резкий поворот, когда после ночи со звездой школы Рози узнает, что у нее будет ребенок. Невзирая на то, что обстоятельства и жизненные ситуации разлучают героев, они и спустя годы продолжают помнить друг о друге и о том чувстве, что соединило их в юности…

    Снималось в:Германия, Великобритания
    Киностудия:Canyon Creek Films, Constantin Film Produktion GmbH
    Время просмотра:01:42:42
    Перевод текста:Авторский (одноголосый закадровый) -Алексей Матвеев, Дублированное - (Ukrainian)
    Файл
    Кодек для видео:MPEG-4 AVC (MKV)
    Качество фильма:WEB-DLRip-AVC
    Информация о видео:AVC, 1024x432, 2000 Kbps
    Информация о звуке:Russian English: AC3, 384 kb/s (6 ch)/Ukrainian: AC3, 192 Kbps (2 ch)
    Субтитры:Russian, English
    Семпл
    Знаете ли вы, что...

    = Экранизация романа Сесилии Ахерн Там, где заканчивается радуга (Where Rainbows End). В США роман известен под названиями С любовью, Рози (Love, Rosie) и Рози Данн (Rosie Dunne).
    = В фильме, в отличие от романа, описываемые события происходят в течение 12 лет, а не за 50.
    Ошибки в фильме

    Многие автомобили, показанные в фильме, не соответствуют времени описываемых событий.
    Скриншоты
    MediaInfo
    General
    Unique ID : 210519650057210082203130480797684236363 (0x9E609C1B6004103AAB96E3196186804B)
    Complete name : G:ДИСК 21.ФИЛЬМЫС любовью, Рози Love, Rosie (2014)Love.Rosie.2014.WEB-DLRip-AVC.Rus.Ukr.Eng.mkv
    Format : Matroska
    Format version : Version 4/Version 2
    File size : 2.12 GiB
    Duration : 1h 42mn
    Overall bit rate : 2 962 Kbps
    Movie name : Love Rosie (2014) - Release for HDCLUB
    Encoded date : UTC 2015-02-26 12:18:22
    Writing application : mkvmerge v7.5.0 (;Glass Culture;) 64bit built on Jan 4 2015 16:48:44
    Writing library : libebml v1.3.1 + libmatroska v1.4.2
    _STATISTICS_WRITING_APP : mkvmerge v7.5.0 (;Glass Culture;) 64bit built on Jan 4 2015 16:48:44
    _STATISTICS_WRITING_DATE_UTC : 2015-02-26 12:18:22
    _STATISTICS_TAGS : BPS DURATION NUMBER_OF_FRAMES NUMBER_OF_BYTES
    DURATION : 01:36:32.721000000
    NUMBER_OF_FRAMES : 1231
    NUMBER_OF_BYTES : 56794
    Video
    ID : 1
    Format : AVC
    Format/Info : Advanced Video Codec
    Format profile : High@L4.1
    Format settings, CABAC : Yes
    Format settings, ReFrames : 8 frames
    Codec ID : V_MPEG4/ISO/AVC
    Duration : 1h 42mn
    Bit rate : 2 000 Kbps
    Width : 1 024 pixels
    Height : 432 pixels
    Display aspect ratio : 2.40:1
    Frame rate mode : Constant
    Frame rate : 23.976 fps
    Color space : YUV
    Chroma subsampling : 4:2:0
    Bit depth : 8 bits
    Scan type : Progressive
    Bits/(Pixel*Frame) : 0.189
    Stream size : 1.39 GiB (66%)
    Title : Release by АРХАНГЕЛ
    Writing library : x264 core 125 r2200 999b753
    Encoding settings : cabac=1/ref=8/deblock=1:-3:-3/analyse=0x3:0x113/me=umh/subme=9/psy=1/psy_rd=1.00:0.00/mixed_ref=1/me_range=32/chroma_me=1/trellis=2/8x8dct=1/cqm=0/deadzone=21,11/fast_pskip=0/chroma_qp_offset=-2/threads=6/lookahead_threads=1/sliced_threads=0/nr=0/decimate=1/interlaced=0/bluray_compat=0/constrained_intra=0/bframes=4/b_pyramid=2/b_adapt=2/b_bias=0/direct=3/weightb=1/open_gop=0/weightp=2/keyint=250/keyint_min=23/scenecut=40/intra_refresh=0/rc_lookahead=40/rc=2pass/mbtree=1/bitrate=2000/ratetol=1.0/qcomp=0.60/qpmin=0/qpmax=69/qpstep=4/cplxblur=20.0/qblur=0.5/ip_ratio=1.40/aq=1:1.00
    Language : English
    Default : Yes
    Forced : No
    Audio #1
    ID : 2
    Format : AC-3
    Format/Info : Audio Coding 3
    Mode extension : CM (complete main)
    Format settings, Endianness : Big
    Codec ID : A_AC3
    Duration : 1h 42mn
    Bit rate mode : Constant
    Bit rate : 384 Kbps
    Channel(s) : 6 channels
    Channel positions : Front: L C R, Side: L R, LFE
    Sampling rate : 48.0 KHz
    Bit depth : 16 bits
    Compression mode : Lossy
    Stream size : 282 MiB (13%)
    Title : AC3 5.1 @ 384 kbps - VO, A.Matveev
    Language : Russian
    Default : Yes
    Forced : No
    Audio #2
    ID : 3
    Format : AC-3
    Format/Info : Audio Coding 3
    Mode extension : CM (complete main)
    Format settings, Endianness : Big
    Codec ID : A_AC3
    Duration : 1h 42mn
    Bit rate mode : Constant
    Bit rate : 192 Kbps
    Channel(s) : 2 channels
    Channel positions : Front: L R
    Sampling rate : 48.0 KHz
    Bit depth : 16 bits
    Compression mode : Lossy
    Stream size : 141 MiB (6%)
    Title : AC3 2.0 @ 192 kbps
    Language : Ukrainian
    Default : No
    Forced : No
    Audio #3
    ID : 4
    Format : AC-3
    Format/Info : Audio Coding 3
    Mode extension : CM (complete main)
    Format settings, Endianness : Big
    Codec ID : A_AC3
    Duration : 1h 42mn
    Bit rate mode : Constant
    Bit rate : 384 Kbps
    Channel(s) : 6 channels
    Channel positions : Front: L C R, Side: L R, LFE
    Sampling rate : 48.0 KHz
    Bit depth : 16 bits
    Compression mode : Lossy
    Stream size : 282 MiB (13%)
    Title : AC3 5.1 @ 384 kbps
    Language : English
    Default : No
    Forced : No
    Text #1
    ID : 5
    Format : UTF-8
    Codec ID : S_TEXT/UTF8
    Codec ID/Info : UTF-8 Plain Text
    Language : Russian
    Default : No
    Forced : No
    Text #2
    ID : 6
    Format : UTF-8
    Codec ID : S_TEXT/UTF8
    Codec ID/Info : UTF-8 Plain Text
    Language : English
    Default : No
    Forced : No
    Menu
    00:00:00.000 : en:1
    00:08:13.000 : en:2
    00:15:40.000 : en:3
    00:23:43.000 : en:4
    00:33:15.000 : en:5
    00:41:09.000 : en:6
    00:48:34.000 : en:7
    00:55:48.000 : en:8
    01:04:03.000 : en:9
    01:12:24.000 : en:10
    01:20:13.000 : en:11
    01:30:15.000 : en:12
    01:38:14.000 : en:13

    Релиз подготовил:
    Размер скачиваемого торрента: 2.12 GB (2281607173 Bytes)

    С любовью, Рози/Love, Rosie (2014) WEB-DLRip-AVC | A скачать через торрент бесплатно
    загрузка...
    Рейтинг →
     (голосов: 1, оценка 4/5, голосовать можно 1 раз )

    Другие торренты по теме:

  • Тайны мира с Анной Чапман. Разоблачение. Из России с любовью (2013) SATRip
  • Из России с любовью / From Russia with Love (1963) BDRip-AVC | iPhone
  • Из Парижа с любовью / From Paris with Love (2010) BDRip-AVC | A
  • Морпех против терроризма 5: Из Багдада с любовью (2007) PC | Repack от R.G. UPG
  • С любовью не поспоришь / Laska je laska (2012) DVDRip | L1
  • Из Парижа с любовью / From Paris with Love (2010) BDRip 720p от leonardo 59 Scarabey
  • Из Парижа с любовью / From Paris with Love (2009) BDRip 1080 | L | Точка Zрения
  • Сборник - Моей Жене с Любовью (2014) MP3 скачать через торрент бесплатно


    • Комментарии (0):

      Информация

      Информация

        Посетители, находящиеся в группе Гости, не могут оставлять комментарии в данной новости.

        ↓ Меню



        ↓ Опрос

        А Вы добавили сайт в закладки?
        Да
        Не


        Top 10 за месяц (Фильмы)