.
Авторизация | Регистрация
» » Предательство / Bloedlink (2014) DVDRemux | L2скачать торрент бесплатно




    Предательство / Bloedlink (2014) DVDRemux | L2скачать торрент бесплатно

    Опубликовал: Админ | Дата: 28-02-2015, 17:00 | Просмотров: 149


    Детально о кино
    Русское название:Предательство
    Русское название в мировом прокате:Bloedlink
    Создали в:2014
    Категория жанра:триллер
    Главный режиссер:Йорам Люрсен

    Актеры
    Марван Кензари, Тиго Гернандт, Сара Хронис

    Сюжет фильма

    Двое бывших заключенных, подружившихся в тюрьме, решают заработать легких денег. В журнале о самых богатых людях, они отыскивают богатея с легкомысленной красавицей-дочкой и похищают ее. Но девица оказывается той еще хитрой стервой и удержать ее на месте не так-то легко. Мало того, ее поведение вносит раздор между подельщиками, создавая двусмысленную ситуацию, раскрывшую неожиданные подробности истинной подоплеки всего происходящего.

    Снималось в:Нидерланды
    Время просмотра:01:27:51
    Перевод текста:Любительский (двухголосый) DeadSno den904
    Внимание:ненормативная лексика!
    Файл
    Кодек для видео:MPEG-2 Video (PAL)
    Качество фильма:DVDRemux
    Информация о видео:6135 kb/s, (16:9), 720x576
    Информация о звуке:
    Аудио#1: AC3, 192 kb/s, (2 ch) |Русский
    Аудио#2: AC3, 448 kb/s, (6 ch) |Голландский
    Субтитры:Английские
    Семпл
    MI
    General
    Format : Matroska
    Format version : Version 4/Version 2
    File size : 4.24 GiB
    Duration : 1h 27mn
    Overall bit rate mode : Variable
    Overall bit rate : 6 912 Kbps
    Encoded date : UTC 2015-02-28 09:05:20
    Writing application : mkvmerge v7.3.0 (;Nouages;) 64bit built on Oct 22 2014 18:53:34
    Writing library : libebml v1.3.0 + libmatroska v1.4.1
    DURATION : 01:27:51.904000000
    NUMBER_OF_FRAMES : 164747
    NUMBER_OF_BYTES : 126525696
    _STATISTICS_WRITING_APP : mkvmerge v7.3.0 (;Nouages;) 64bit built on Oct 22 2014 18:53:34
    _STATISTICS_WRITING_DATE_UT : 2015-02-28 09:05:20
    _STATISTICS_TAGS : BPS DURATION NUMBER_OF_FRAMES NUMBER_OF_BYTES
    Video
    ID : 1
    Format : MPEG Video
    Format version : Version 2
    Format profile : Main@Main
    Format settings, BVOP : Yes
    Format settings, Matrix : Custom
    Format settings, GOP : M=3, N=12
    Format settings, picture st : Frame
    Codec ID : V_MPEG2
    Codec ID/Info : MPEG 1 or 2 Video
    Duration : 1h 27mn
    Bit rate mode : Variable
    Bit rate : 6 135 Kbps
    Maximum bit rate : 9 600 Kbps
    Width : 720 pixels
    Height : 576 pixels
    Display aspect ratio : 16:9
    Frame rate mode : Constant
    Frame rate : 25.000 fps
    Standard : PAL
    Color space : YUV
    Chroma subsampling : 4:2:0
    Bit depth : 8 bits
    Scan type : Interlaced
    Scan order : Top Field First
    Compression mode : Lossy
    Bits/(Pixel*Frame) : 0.592
    Time code of first frame : 01:00:13:07
    Time code source : Group of pictures t_head
    GOP, Open/Closed : Closed
    Stream size : 3.77 GiB (89%)
    Language : English
    Default : No
    Forced : No
    DURATION : 01:27:51.120000000
    NUMBER_OF_FRAMES : 131778
    NUMBER_OF_BYTES : 4130709609
    _STATISTICS_WRITING_APP : mkvmerge v7.3.0 (;Nouages;) 64bit built on Oct 22 2014 18:53:34
    _STATISTICS_WRITING_DATE_UT : 2015-02-28 09:05:20
    _STATISTICS_TAGS : BPS DURATION NUMBER_OF_FRAMES NUMBER_OF_BYTES
    Audio #1
    ID : 2
    Format : AC-3
    Format/Info : Audio Coding 3
    Mode extension : CM (complete main)
    Format settings, Endianness : Big
    Codec ID : A_AC3
    Duration : 1h 27mn
    Bit rate mode : Constant
    Bit rate : 192 Kbps
    Channel(s) : 2 channels
    Channel positions : Front: L R
    Sampling rate : 48.0 KHz
    Bit depth : 16 bits
    Compression mode : Lossy
    Stream size : 121 MiB (3%)
    Title : l2
    Language : Russian
    Default : Yes
    Forced : Yes
    DURATION : 01:27:50.880000000
    NUMBER_OF_FRAMES : 164715
    NUMBER_OF_BYTES : 295169280
    _STATISTICS_WRITING_APP : mkvmerge v7.3.0 (;Nouages;) 64bit built on Oct 22 2014 18:53:34
    _STATISTICS_WRITING_DATE_UT : 2015-02-28 09:05:20
    _STATISTICS_TAGS : BPS DURATION NUMBER_OF_FRAMES NUMBER_OF_BYTES
    Audio #2
    ID : 3
    Format : AC-3
    Format/Info : Audio Coding 3
    Mode extension : CM (complete main)
    Format settings, Endianness : Big
    Codec ID : A_AC3
    Duration : 1h 27mn
    Bit rate mode : Constant
    Bit rate : 448 Kbps
    Channel(s) : 6 channels
    Channel positions : Front: L C R, Side: L R, LFE
    Sampling rate : 48.0 KHz
    Bit depth : 16 bits
    Compression mode : Lossy
    Stream size : 282 MiB (6%)
    Title : Surround 5.1
    Language : Dutch
    Default : No
    Forced : No
    DURATION : 01:24:30.479000000
    NUMBER_OF_FRAMES : 741
    NUMBER_OF_BYTES : 931844
    _STATISTICS_WRITING_APP : mkvmerge v7.3.0 (;Nouages;) 64bit built on Oct 22 2014 18:53:34
    _STATISTICS_WRITING_DATE_UT : 2015-02-28 09:05:20
    _STATISTICS_TAGS : BPS DURATION NUMBER_OF_FRAMES NUMBER_OF_BYTES
    Text
    ID : 4
    Format : VobSub
    Muxing mode : zlib
    Codec ID : S_VOBSUB
    Codec ID/Info : The same subtitle format used on DVDs
    Language : English
    Default : No
    Forced : No
    Menu
    00:00:00.080 : en:Chapter 01
    00:08:55.640 : en:Chapter 02
    00:18:54.920 : en:Chapter 03
    00:31:15.200 : en:Chapter 04
    00:37:45.320 : en:Chapter 05
    00:48:30.320 : en:Chapter 06
    00:55:58.880 : en:Chapter 07
    01:06:35.000 : en:Chapter 08
    01:16:59.600 : en:Chapter 09

    Скриншоты

    Размер скачиваемого торрента: 4.24 GB (4555129969 Bytes)

    Предательство/Bloedlink (2014) DVDRemux | L2
    загрузка...
    Рейтинг →
     (голосов: 1, оценка 3/5, голосовать можно 1 раз )

    Другие торренты по теме:

  • Познавательное ТВ: День предательства России (2013) HD 720p торрент скачать бесплатно
  • Любовь и предательство / Baghban (2003) BDRip 720p | P торрент скачать бесплатно
  • Биохимия предательства (2014) SatRip скачать через торрент бесплатно
  • Предательство голубки / Betrayal of the Dove (1993) DVDRip | P скачать через торрент бесплатно
  • Измена / Предательство / Betrayal (2013) WEB-DLRip | Fox Life скачать через торрент бесплатно
  • Каденция: Музыка, предательство и смерть (2014) РС торрент скачать бесплатно
  • За гранью жестокости: Богатство от предательства (2014) РС скачать через торрент бесплатно
  • Благословенное предательство и Последнее метро / Benedetta Trasgressione Ultimo Metro (1999) DVDRip | P2 торрент скачать бесплатно


    • Комментарии (0):

      Информация

      Информация

        Посетители, находящиеся в группе Гости, не могут оставлять комментарии в данной новости.

        ↓ Меню



        ↓ Опрос

        А Вы добавили сайт в закладки?
        Да
        Не


        Top 10 за неделю (Фильмы)