.
Авторизация | Регистрация
Хочешь лучшие торренты? Добавь свой email!
Добавить
» » Отель Гранд Будапешт / The Grand Budapest Hotel (2014) BDRip | A | Сербин торрент скачать бесплатно




    Отель Гранд Будапешт / The Grand Budapest Hotel (2014) BDRip | A | Сербин торрент скачать бесплатно

    Опубликовал: Админ | Дата: 1-03-2015, 00:42 | Просмотров: 177

    Отель Гранд Будапешт/The Grand Budapest Hotel


    Создали в: 2014
    Категория жанра: комедия, детектив, приключения, криминал
    Снималось в: Великобритания, Германия
    Время просмотра: 01:39:55
    Перевод текста:Авторский (одноголосный)Ю.Сербин
    Субтитры подготовлены: нет
    Главный режиссер: Уэс Андерсон

    Актеры
    Рэйф Файнс, Тони Револори, Сирша Ронан, Эдриан Броуди, Уиллем Дефо, Ф. Мюррэй Абрахам, Джуд Лоу, Эдвард Нортон, Джефф Голдблюм, Харви Кейтель

    Фильм рассказывает об увлекательных приключениях легендарного консьержа Густава и его юного друга, портье Зеро Мустафы. Сотрудники гостиницы становятся свидетелями кражи и поисков бесценных картин эпохи Возрождения, борьбы за огромное состояние богатой семьи и драматических изменений в Европе между двумя кровопролитными войнами XX века.

    Качество фильма: BDRip исх.BDRemux 1080p
    Тип видео: AVI
    Информация о видео кодек: XvID
    Информация о звуке кодек: AC3
    Информация о видео: 720x384 (1.88:1), 23.976 fps, XviD build 73 ~1585 kbps avg, 0.239 bit/pixel
    Информация о звуке: 48 kHz, AC3 Dolby Digital, 3/2 (L,C,R,l,r) + LFE ch, ~384.00 kbps avg
    Рип от:Deadmauvlad
    MI
    Формат : AVI
    Формат/Информация : Audio Video Interleave
    Размер файла : 1,38 Гбайт
    Продолжительность : 1 ч. 39 м.
    Общий поток : 1978 Кбит/сек
    Название фильма : Otel.Grand.BudApe6t.2014.AVO.BDRip.Deadmauvlad.SerBin
    Режиссёр : Rip By *Deadmauvlad*
    Жанр : комедия, детектив, приключен
    Программа кодирования : VirtualDubMod 1.5.10.3 | www.virtualdub-fr.org || (build 2550/release)
    Формат оригинала/Имя : Фильм
    Правообладатель : leon
    Примечание : BDRip *1.37GB *
    Видео
    Идентификатор : 0
    Формат : MPEG-4 Visual
    Профиль формата : Advanced Simple@L5
    Параметр BVOP формата : 1
    Параметр QPel формата : Нет
    Параметр GMC формата : Без точки перехода
    Параметр матрицы формата : Выборочная
    Идентификатор кодека : XVID
    Идентификатор кодека/Подсказка : XviD
    Продолжительность : 1 ч. 39 м.
    Битрейт : 1585 Кбит/сек
    Ширина : 720 пикселей
    Высота : 384 пикселя
    Соотношение сторон : 1,85:1
    Частота кадров : 23,976 кадра/сек
    Цветовое пространство : YUV
    Субдискретизация насыщенности : 4:2:0
    Битовая глубина : 8 бит
    Тип развёртки : Прогрессивная
    Метод сжатия : С потерями
    Бит/(Пиксели*Кадры) : 0.239
    Размер потока : 1,11 Гбайт (80%)
    Библиотека кодирования : XviD 73
    Аудио
    Идентификатор : 1
    Формат : AC-3
    Формат/Информация : Audio Coding 3
    Расширение режима : CM (complete main)
    Параметр Endianness формата : Big
    Идентификатор кодека : 2000
    Продолжительность : 1 ч. 39 м.
    Вид битрейта : Постоянный
    Битрейт : 384 Кбит/сек
    Каналы : 6 каналов
    Расположение каналов : Front: L C R, Side: L R, LFE
    Частота : 48,0 КГц
    Битовая глубина : 16 бит
    Метод сжатия : С потерями
    Размер потока : 274 Мбайт (19%)
    Выравнивание : Разделение по промежуткам
    Продолжительность промежутка : 42 мс. (1,00 видеокадр)
    Время предзагрузки промежутка : 500 мс.

    Скриншоты:
    align=center


    /align

    Размер скачиваемого торрента: 1.38 GB (1482606592 Bytes)

    Отель Гранд Будапешт/The Grand Budapest Hotel (2014) BDRip | A | Сербин
    загрузка...
    Рейтинг →
     (голосов: 1, оценка 3/5, голосовать можно 1 раз )

    Другие торренты по теме:

  • OST - Отель Гранд Будапешт / The Grand Budapest Hotel (2014) MP3
  • Отель Гранд Будапешт (2014) скачать через торрент бесплатно
  • Отель Гранд Будапешт / The Grand Budapest Hotel (2014) WEB-DLRip | Звук с TS скачать через торрент бесплатно
  • Отель Гранд Будапешт / The Grand Budapest Hotel (2014) WEB-DL 720p | Звук с TS скачать через торрент бесплатно
  • Отель Гранд Будапешт / The Grand Budapest Hotel (2014) WEB-DLRip | Звук с TS скачать через торрент бесплатно
  • Отель Гранд Будапешт / The Grand Budapest Hotel (2014) HDRip | D | Лицензия
  • Отель Гранд Будапешт / The Grand Budapest Hotel (2014) BDRip 1080p | Лицензия
  • Отель Гранд Будапешт / The Grand Budapest Hotel (2014) BDRip 720p | Лицензия


    • Комментарии (0):

      Информация

      Информация

        Посетители, находящиеся в группе Гости, не могут оставлять комментарии в данной новости.

        ↓ Меню



        ↓ Опрос

        А Вы добавили сайт в закладки?
        Да
        Не


        Top 10 за месяц (Фильмы)