.
Авторизация | Регистрация
Хочешь лучшие торренты? Добавь свой email!
Добавить
» » Затура: Космическое приключение / Zathura: A Space Adventure (2005) HDRip-AVC | D, P2, A торрент скачать бесплатно




    Затура: Космическое приключение / Zathura: A Space Adventure (2005) HDRip-AVC | D, P2, A торрент скачать бесплатно

    Опубликовал: Админ | Дата: 2-03-2015, 16:00 | Просмотров: 262


    Детально о кино
    Русское название:Затура: Космическое приключение
    Русское название в мировом прокате:Zathura: A Space Adventure
    Создали в:2005
    Категория жанра:фантастика, фэнтези, боевик, комедия, приключения, семейный
    Главный режиссер:Джон Фавро/Jon Favreau

    Актеры
    Йон Бобо (Danny), Джош Хатчерсон (Walter), Дэкс Шепард (Astronaut), Кристен Стюарт (Lisa), Тим Роббинс (Dad), Фрэнк Оз (Robot, озвучка), Джон Александр (Robot), Дерек Мирс (Lead Zorgon), Дуглас Тейт (Zorgon), Джо Букаро III (Zorgon), Джефф Вульф (Zorgon)

    Сюжет фильма
    Приключения ждут
    Братья Уолтер и Дэнни находят в подвале своего старого дома загадочную игру под названием Затура и в результате оказываются в космосе.
    Во время их фантастического путешествия они встречаются с астронавтом, попадают под метеоритный дождь, противостоят враждебным инопланетянам, похожим на ящериц, сталкиваются с неуправляемым роботом и межгалактическим космическим кораблем. Но самая большая опасность ожидает их впереди. Если они не успеют вовремя закончить игру и добраться до планеты Затура, то навеки останутся в открытом космосе…

    Снималось в:США
    Киностудия:Columbia Pictures Corporation, Radar Films, Teitler Film
    Время просмотра:01:41:20
    Перевод текста:ДубляжЛицензия, Профессиональный (двухголосый, закадровый)Гланц и Королева, Авторский (одноголосый, закадровый)Королев
    Файл
    Кодек для видео:MPEG-4 AVC (MKV)
    Качество фильма:HDRip-AVC
    Информация о видео:AVC, 1024x552 (1.855), 23.976 fps, 2 000 Kbps (0.148 bit/pixel)
    Информация о звуке #1:AC-3, 48.0 KHz, 6 ch, 448 Kbps, CBR (Russian) - дубляж
    Информация о звуке #2:AC-3, 48.0 KHz, 2 ch, 192 Kbps, CBR (Russian) - Королев
    Информация о звуке #3:AC-3, 48.0 KHz, 6 ch, 448 Kbps, CBR (Russian) - Гланц и Королева
    Информация о звуке #4:AC-3, 48.0 KHz, 6 ch, 448 Kbps, CBR (English) - оригинал
    Информация о звуке #5:AC-3 Dolby Digital, 48.0 KHz, 2 ch, 192 Kbps, CBR (English) - комментарии (Джона Фавро и Питера Биллингсли)
    Субтитры:Russian, English, English (Комментарии)
    Доп. Информация:Рабочее название фильма –Джуманджи 2/Jumanji 2.

    Скриншоты
    MediaInfo
    General
    Unique ID : 203065630447071499112104326258630567243 (0x98C50490DC2B5985A91BC96C5F0BA54B)
    Complete name : G:ДИСК 2?1.ФИЛЬМЫЗатура Космическое приключение Zathura A Space Adventure (2005)Zathura.2005.HDRip-AVC.Rus.Eng.mkv
    Format : Matroska
    Format version : Version 4/Version 2
    File size : 2.64 GiB
    Duration : 1h 41mn
    Overall bit rate : 3 731 Kbps
    Encoded date : UTC 2015-03-01 20:43:46
    Writing application : mkvmerge v7.5.0 (;Glass Culture;) 64bit built on Jan 4 2015 16:48:44
    Writing library : libebml v1.3.1 + libmatroska v1.4.2
    DURATION : 01:41:20.096000000
    NUMBER_OF_FRAMES : 190003
    NUMBER_OF_BYTES : 340485376
    _STATISTICS_WRITING_APP : mkvmerge v7.5.0 (;Glass Culture;) 64bit built on Jan 4 2015 16:48:44
    _STATISTICS_WRITING_DATE_UTC : 2015-03-01 20:43:46
    _STATISTICS_TAGS : BPS DURATION NUMBER_OF_FRAMES NUMBER_OF_BYTES
    Video
    ID : 1
    Format : AVC
    Format/Info : Advanced Video Codec
    Format profile : High@L4.1
    Format settings, CABAC : Yes
    Format settings, ReFrames : 8 frames
    Codec ID : V_MPEG4/ISO/AVC
    Duration : 1h 41mn
    Bit rate : 2 000 Kbps
    Width : 1 024 pixels
    Height : 552 pixels
    Display aspect ratio : 1.85:1
    Frame rate mode : Constant
    Frame rate : 23.976 fps
    Color space : YUV
    Chroma subsampling : 4:2:0
    Bit depth : 8 bits
    Scan type : Progressive
    Bits/(Pixel*Frame) : 0.148
    Stream size : 1.36 GiB (52%)
    Title : Release by АРХАНГЕЛ
    Writing library : x264 core 125 r2200 999b753
    Encoding settings : cabac=1/ref=8/deblock=1:-3:-3/analyse=0x3:0x113/me=umh/subme=10/psy=1/psy_rd=1.00:0.00/mixed_ref=1/me_range=32/chroma_me=1/trellis=2/8x8dct=1/cqm=0/deadzone=21,11/fast_pskip=0/chroma_qp_offset=-2/threads=6/lookahead_threads=1/sliced_threads=0/nr=0/decimate=1/interlaced=0/bluray_compat=0/constrained_intra=0/bframes=8/b_pyramid=2/b_adapt=2/b_bias=0/direct=3/weightb=1/open_gop=0/weightp=2/keyint=240/keyint_min=23/scenecut=40/intra_refresh=0/rc_lookahead=40/rc=2pass/mbtree=1/bitrate=2000/ratetol=1.0/qcomp=0.60/qpmin=0/qpmax=69/qpstep=4/cplxblur=20.0/qblur=0.5/ip_ratio=1.40/aq=1:1.00
    Language : English
    Default : Yes
    Forced : No
    Audio #1
    ID : 2
    Format : AC-3
    Format/Info : Audio Coding 3
    Mode extension : CM (complete main)
    Format settings, Endianness : Big
    Codec ID : A_AC3
    Duration : 1h 41mn
    Bit rate mode : Constant
    Bit rate : 448 Kbps
    Channel(s) : 6 channels
    Channel positions : Front: L C R, Side: L R, LFE
    Sampling rate : 48.0 KHz
    Bit depth : 16 bits
    Compression mode : Lossy
    Stream size : 325 MiB (12%)
    Title : Полное дублирование
    Language : Russian
    Default : Yes
    Forced : No
    Audio #2
    ID : 3
    Format : AC-3
    Format/Info : Audio Coding 3
    Mode extension : CM (complete main)
    Format settings, Endianness : Big
    Codec ID : A_AC3
    Duration : 1h 41mn
    Bit rate mode : Constant
    Bit rate : 192 Kbps
    Channel(s) : 2 channels
    Channel positions : Front: L R
    Sampling rate : 48.0 KHz
    Bit depth : 16 bits
    Compression mode : Lossy
    Stream size : 139 MiB (5%)
    Title : Королев
    Language : Russian
    Default : No
    Forced : No
    Audio #3
    ID : 4
    Format : AC-3
    Format/Info : Audio Coding 3
    Mode extension : CM (complete main)
    Format settings, Endianness : Big
    Codec ID : A_AC3
    Duration : 1h 41mn
    Bit rate mode : Constant
    Bit rate : 448 Kbps
    Channel(s) : 6 channels
    Channel positions : Front: L C R, Side: L R, LFE
    Sampling rate : 48.0 KHz
    Bit depth : 16 bits
    Compression mode : Lossy
    Stream size : 325 MiB (12%)
    Title : Гланц и Королева
    Language : Russian
    Default : No
    Forced : No
    Audio #4
    ID : 5
    Format : AC-3
    Format/Info : Audio Coding 3
    Mode extension : CM (complete main)
    Format settings, Endianness : Big
    Codec ID : A_AC3
    Duration : 1h 41mn
    Bit rate mode : Constant
    Bit rate : 448 Kbps
    Channel(s) : 6 channels
    Channel positions : Front: L C R, Side: L R, LFE
    Sampling rate : 48.0 KHz
    Bit depth : 16 bits
    Compression mode : Lossy
    Stream size : 325 MiB (12%)
    Title : Original
    Language : English
    Default : No
    Forced : No
    Audio #5
    ID : 6
    Format : AC-3
    Format/Info : Audio Coding 3
    Format profile : Dolby Digital
    Mode extension : CM (complete main)
    Format settings, Endianness : Big
    Codec ID : A_AC3
    Duration : 1h 41mn
    Bit rate mode : Constant
    Bit rate : 192 Kbps
    Channel(s) : 2 channels
    Channel positions : Front: L R
    Sampling rate : 48.0 KHz
    Bit depth : 16 bits
    Compression mode : Lossy
    Stream size : 139 MiB (5%)
    Title : Комментарии Джона Фавро и Питера Биллингсли
    Language : English
    Default : No
    Forced : No
    Text #1
    ID : 7
    Format : UTF-8
    Codec ID : S_TEXT/UTF8
    Codec ID/Info : UTF-8 Plain Text
    Language : Russian
    Default : No
    Forced : No
    Text #2
    ID : 8
    Format : UTF-8
    Codec ID : S_TEXT/UTF8
    Codec ID/Info : UTF-8 Plain Text
    Language : English
    Default : No
    Forced : No
    Text #3
    ID : 9
    Format : UTF-8
    Codec ID : S_TEXT/UTF8
    Codec ID/Info : UTF-8 Plain Text
    Title : Комментарии Джона Фавро и Питера Биллингсли
    Language : English
    Default : No
    Forced : No
    Menu
    00:00:00.000 : en:00:00:00.000
    00:06:10.328 : en:00:06:10.328
    00:13:49.370 : en:00:13:49.370
    00:17:14.575 : en:00:17:14.575
    00:23:54.183 : en:00:23:54.183
    00:27:48.458 : en:00:27:48.458
    00:36:40.073 : en:00:36:40.073
    00:39:49.345 : en:00:39:49.345
    00:44:39.594 : en:00:44:39.594
    00:55:28.408 : en:00:55:28.408
    01:01:04.369 : en:01:01:04.369
    01:05:50.196 : en:01:05:50.196
    01:18:18.819 : en:01:18:18.819
    01:22:22.187 : en:01:22:22.187
    01:26:20.175 : en:01:26:20.175
    01:32:29.294 : en:01:32:29.294

    Релиз подготовил:
    Размер скачиваемого торрента: 2.64 GB (2835340231 Bytes)

    Затура: Космическое приключение/Zathura: A Space Adventure (2005) HDRip-AVC | D, P2, A
    загрузка...
    Рейтинг →
     (голосов: 1, оценка 3/5, голосовать можно 1 раз )

    Другие торренты по теме:



      Комментарии (0):

      Информация

      Информация

        Посетители, находящиеся в группе Гости, не могут оставлять комментарии в данной новости.

        ↓ Меню



        ↓ Опрос

        А Вы добавили сайт в закладки?
        Да
        Не


        Top 10 за месяц (Фильмы)