.
Авторизация | Регистрация
» » Несносные боссы 2 / Horrible Bosses 2 (2014) BDRip 720p | KinoGadget | iPad скачать торрент бесплатно




    Несносные боссы 2 / Horrible Bosses 2 (2014) BDRip 720p | KinoGadget | iPad скачать торрент бесплатно

    Опубликовал: Админ | Дата: 2-03-2015, 23:00 | Просмотров: 106


    Создали в: 2014
    Снималось в: США
    Категория жанра: комедия
    Время просмотра: 01:48:26
    Перевод текста: Дублированный
    Главный режиссер: Шон Андерс

    Актеры
    Джейсон Бейтмен, Джейсон Судейкис, Чарли Дэй, Крис Пайн, Дженнифер Энистон, Кристоф Вальц, Джейми Фокс, Кевин Спейси, Джонатан Бэнкс, Линдси Слоун
    Описание: Ник, Дэйл и Курт решают сами стать боссами и открывают собственный бизнес. Но инвестор кидает их. Тогда они решают похитить его взрослого сына, чтобы получить выкуп и вернуть себе контроль над компанией.

    Информация о видео кодек:MPEG-4 AVC
    Качество фильма:BDRip 720p
    Параметры Видео:1280x528, 23.976 fps; ~1 841 kbps avg
    Параметры Звука:48.0 KHz, AAC, ~165.00 kbps avg, 2ch
    Тип видео:mp4
    Релиз:
    Meta Tags


    MI
    General
    Complete name : E:Nesnosnye_bossy_2.2014.D.BDRip.720p_KinoGadget.mp4
    Format : MPEG-4
    Format profile : Base Media
    Codec ID : isom
    File size : 1.53 GiB
    Duration : 1h 48mn
    Overall bit rate mode : Variable
    Overall bit rate : 2 014 Kbps
    Movie name : Несносные боссы 2
    Performer : Шон Андерс
    Genre : Comedy, Crime
    ContentType : Short Film
    Recorded date : 2014
    Encoded date : UTC 2015-03-02 17:53:36
    Tagged date : UTC 2015-03-02 18:16:38
    Cover : Yes
    ContentRating : mpaa|R|400|
    LongDeion : Ник, Дэйл и Курт решают сами стать боссами и открывают собственный бизнес. Но инвестор кидает их. Тогда они решают похитить его взрослого сына, чтобы получить выкуп и вернуть себе контроль над компанией.
    HDVideo : Yes
    Video
    ID : 1
    Format : AVC
    Format/Info : Advanced Video Codec
    Format profile : High@L4.1
    Format settings, CABAC : Yes
    Format settings, ReFrames : 10 frames
    Codec ID : avc1
    Codec ID/Info : Advanced Video Coding
    Duration : 1h 48mn
    Bit rate : 1 841 Kbps
    Maximum bit rate : 7 733 Kbps
    Width : 1 280 pixels
    Height : 528 pixels
    Display aspect ratio : 2.40:1
    Frame rate mode : Constant
    Frame rate : 23.976 fps
    Color space : YUV
    Chroma subsampling : 4:2:0
    Bit depth : 8 bits
    Scan type : Progressive
    Bits/(Pixel*Frame) : 0.114
    Stream size : 1.39 GiB (91%)
    Writing library : x264 core 142 r2431 ac76440
    Encoding settings : cabac=1/ref=10/deblock=1:-1:-1/analyse=0x3:0x133/me=umh/subme=10/psy=1/psy_rd=1.00:0.20/mixed_ref=1/me_range=24/chroma_me=1/trellis=2/8x8dct=1/cqm=0/deadzone=21,11/fast_pskip=1/chroma_qp_offset=-3/threads=3/lookahead_threads=1/sliced_threads=0/nr=0/decimate=1/interlaced=0/bluray_compat=0/constrained_intra=0/bframes=4/b_pyramid=2/b_adapt=2/b_bias=0/direct=3/weightb=1/open_gop=0/weightp=2/keyint=240/keyint_min=23/scenecut=40/intra_refresh=0/rc_lookahead=60/rc=crf/mbtree=1/crf=21.0/qcomp=0.60/qpmin=0/qpmax=69/qpstep=4/ip_ratio=1.40/aq=1:1.70
    Encoded date : UTC 2015-03-02 17:45:57
    Tagged date : UTC 2015-03-02 17:54:24
    Audio
    ID : 2
    Format : AAC
    Format/Info : Advanced Audio Codec
    Format profile : LC
    Codec ID : 40
    Duration : 1h 48mn
    Duration_FirstFrame : 64ms
    Bit rate mode : Variable
    Bit rate : 165 Kbps
    Maximum bit rate : 212 Kbps
    Channel count : 2 channels
    Channel positions : Front: L R
    Sampling rate : 48.0 KHz
    Compression mode : Lossy
    Stream size : 128 MiB (8%)
    Tagged date : UTC 2015-03-02 17:54:24

    Скриншоты


    Залил: KinoGadget
    Размер скачиваемого торрента: 1.53 GB (1638178290 Bytes)

    Несносные боссы 2/Horrible Bosses 2 (2014) BDRip 720p | KinoGadget | iPad
    загрузка...
    Рейтинг →
     (голосов: 1, оценка 5/5, голосовать можно 1 раз )

    Другие торренты по теме:



      Комментарии (0):

      Информация

      Информация

        Посетители, находящиеся в группе Гости, не могут оставлять комментарии в данной новости.

        ↓ Меню



        ↓ Опрос

        А Вы добавили сайт в закладки?
        Да
        Не


        Top 10 за неделю (Фильмы)