.
Авторизация | Регистрация
Хочешь лучшие торренты? Добавь свой email!
Добавить
» » Восприятие / Perception (2014-2015) WEBRip 720p | Padabajour торрент скачать бесплатно




    Восприятие / Perception (2014-2015) WEBRip 720p | Padabajour торрент скачать бесплатно

    Опубликовал: Админ | Дата: 3-03-2015, 08:00 | Просмотров: 133


    Детально о кино
    Русское название:Восприятие
    Русское название в мировом прокате:Perception
    Создали в:2014-2015
    Категория жанра:Криминальный триллер, психологический детектив
    Главный режиссер:Крис Мисиано, Грег Биман, Кеннет Биллер

    Актеры
    Эрик Маккормак, Рэйчел Ли Кук, Келли Роуэн, Эрджей Смит, Джонатан Скарф, Кристофер Чен, Лиза Бейнс, Джимми Беннетт, Бриджет Риган, ЛеВар Бертон

    Сюжет фильма

    Доктор Дэниел Пирс — талантливый , но эксцентричный нейробиолог, которого пригласили в ФБР для оказания помощи в расследовании наиболее сложных дел. Доктор Пирс работает в тесном сотрудничестве с Кейт Моретти, бывшей студенткой, которая и завербовала его для работы с Бюро. Также в команде есть Макс Левики — ассистент доктора Пирса и Натали Винсент — его лучший друг.
    Разгадывать сложнейшие загадки доктору помогают его галлюцинации, ведь Пирс страдает шизофренией и его болезнь бывает крайне полезна в расследовании сложнейших дел.

    Снималось в:США
    Время просмотра:42:00
    Перевод текста:Любительский (многоголосый закадровый)
    Файл
    Кодек для видео:Xvid
    Качество фильма:WEBRip 720p
    Информация о видео:Xvid, 1280x720, 23.97, 4 227 Kbps
    Информация о звуке:mp3, 48000Hz, 2 ch, 160 kbps , 0.171 kbps
    Семпл
    Скриншоты


    MediaInfo

    Video
    ID : 0
    Format : MPEG-4 Visual
    Format profile : Advanced Simple@L5
    Format settings, BVOP : 2
    Format settings, QPel : No
    Format settings, GMC : No warppoints
    Format settings, Matrix : Default (H.263)
    Muxing mode : Packed bitstream
    Codec ID : XVID
    Codec ID/Hint : XviD
    Duration : 40mn 33s
    Bit rate : 4 227 Kbps
    Width : 1 280 pixels
    Height : 720 pixels
    Display aspect ratio : 16:9
    Frame rate : 23.976 fps
    Color space : YUV
    Chroma subsampling : 4:2:0
    Bit depth : 8 bits
    Scan type : Progressive
    Compression mode : Lossy
    Bits/(Pixel*Frame) : 0.191
    Stream size : 1.20 GiB (96%)
    Writing library : XviD 64
    Audio
    ID : 1
    Format : MPEG Audio
    Format version : Version 1
    Format profile : Layer 3
    Mode : Joint stereo
    Codec ID : 55
    Codec ID/Hint : MP3
    Duration : 40mn 33s
    Bit rate mode : Constant
    Bit rate : 160 Kbps
    Channel(s) : 2 channels
    Sampling rate : 48.0 KHz
    Compression mode : Lossy
    Stream size : 46.4 MiB (4%)
    Alignment : Split accross interleaves
    Interleave, duration : 42 ms (1.00 video frame)
    Interleave, preload duration : 500 ms

    Релиз подготовил:Padabajour
    Залил: Reptil
    Размер скачиваемого торрента: 5.85 GB (6282843164 Bytes)

    Восприятие/Perception (2014-2015) WEBRip 720p | Padabajour
    загрузка...
    Рейтинг →
     (голосов: 1, оценка 5/5, голосовать можно 1 раз )

    Другие торренты по теме:

  • Восприятие / Perception (2012) WEB-DLRip, HDTVRip
  • Восприятие / Perception (2012) WEB-DLRip | Amedia
  • Восприятие, 3 сезон 1-3 серии / Perception
  • Восприятие / Perception (2014) WEB-DLRip | To4ka скачать через торрент бесплатно
  • Восприятие / Perception (2014) WEB-DLRip
  • Восприятие / Perception (2014-2015) WEBRip 720p | L
  • Восприятие / Perception (2012) WEB-DL 720p | To4ka
  • Восприятие / Perception (2012) WEB-DLRip | ТВ3


    • Комментарии (0):

      Информация

      Информация

        Посетители, находящиеся в группе Гости, не могут оставлять комментарии в данной новости.

        ↓ Меню



        ↓ Опрос

        А Вы добавили сайт в закладки?
        Да
        Не


        Top 10 за месяц (Фильмы)