.
Авторизация | Регистрация




Берлин (1945) DVDRip от New-Team скачать торрент бесплатно

Опубликовал: Админ | Дата: 4-03-2015, 14:00 | Просмотров: 225


Снималось в: СССР
Создали в: Central Documentary Film Studio
Категория жанра: документальный, военный, история
Создали в: 1945
Время просмотра: 01:03:08
Перевод текста:Не требуется
Субтитры подготовлены: нет
Оригинальная аудиодорожка: русский
Главный режиссер: Юлий Райзман, Елизавета Свилова

Актеры

Рудольф Беттгер, В.И. Чулков, Уильям С. Гэйлмор, Карл Спаатс, Ганс-Эрих Восс, Гельмут Вейдлинг, Георгий Жуков...
Описание:
Историческая хроника о последнем решающем сражении c фашистской Германией, о взятии Берлина и о безоговорочной капитуляции германских вооружённых сил. В фильме также, использованы материалы немецкой кинохроники. Берлин — это фильм об окончательном крушении гитлеровского рейха.
Художественный руководитель сьемок Юлий Райзман и группа его фильма Берлин находились на фронте, продвигаясь к германской столице вместе с войсками 1-го Белорусского фронта. Кинематографисты каждый вечер объезжали передний край. 30 апреля 1945 года оператору Ивану Панову, прорывавшемуся с камерой в руках к Рейхстагу вместе со связным-автоматчиком, удалось из окна четырехэтажного дома на левом берегу Шпрее запечатлеть минуты агонии бывшего парламента: изрешеченные пулями стены, дым из проемов, обломки колонн. Через несколько минут начался последний штурм. Вместе с воинами, держа аппарат наготове, в здание под градом фашистского свинца ворвался кинооператор Иван Панов, а через несколько мгновений над куполом Рейхстага взвилось красное Знамя Победы.
Фильму Берлин можно было бы дать подзаголовок Сюита Победы, что соответствовало бы эмоциональному контрапункту, который лежит в основе монтажа, музыки этой удивительной картины.



Источник:DVD5 R5
Качество фильма видео:DVDRip
Тип видео видео: AVI
Информация о видео: 688x512 (4:3), 25 fps, XviD ~ 1448 kbps avg, 0.164 bit/pixel
Информация о звуке: 48 kHz, Dolby Digital AC3 2.0, 192 kbps
Раздача от:
MediaInfo

Общее
Полное имя : Berlin.1945.DVDRip_New-team_by_AVP_Studio.avi
Формат : AVI
Формат/Информация : Audio Video Interleave
Размер файла : 745 Мбайт
Продолжительность : 1 ч. 3 м.
Общий поток : 1650 Кбит/сек
Программа кодирования : VirtualDubModRus 1.5.10.2 (build 2542/release)
Библиотека кодирования : VirtualDubMod build 2542/release
Видео
Идентификатор : 0
Формат : MPEG-4 Visual
Профиль формата : Advanced Simple@L5
Параметр BVOP формата : 1
Параметр QPel формата : Нет
Параметр GMC формата : Без точки перехода
Параметр матрицы формата : Выборочная
Идентификатор кодека : XVID
Идентификатор кодека/Подсказка : XviD
Продолжительность : 1 ч. 3 м.
Битрейт : 1448 Кбит/сек
Ширина : 688 пикселей
Высота : 512 пикселей
Соотношение сторон : 4:3
Частота кадров : 25,000 кадров/сек
Цветовое пространство : YUV
Субдискретизация насыщенности : 4:2:0
Битовая глубина : 8 бит
Тип развёртки : Прогрессивная
Метод сжатия : С потерями
Бит/(Пиксели*Кадры) : 0.164
Размер потока : 654 Мбайт (88%)
Библиотека кодирования : XviD 73
Аудио
Идентификатор : 1
Формат : AC-3
Формат/Информация : Audio Coding 3
Расширение режима : CM (complete main)
Параметр Endianness формата : Big
Идентификатор кодека : 2000
Продолжительность : 1 ч. 3 м.
Вид битрейта : Постоянный
Битрейт : 192 Кбит/сек
Каналы : 2 канала
Расположение каналов : Front: L R
Частота : 48,0 КГц
Битовая глубина : 16 бит
Метод сжатия : С потерями
Размер потока : 86,7 Мбайт (12%)
Выравнивание : Разделение по промежуткам
Продолжительность промежутка : 40 мс. (1,00 видеокадр)
Время предзагрузки промежутка : 500 мс

Скриншоты



Залил: AVPStudio
Размер скачиваемого торрента: 745.04 MB (781234176 Bytes)

Берлин (1945) DVDRip от New-Team
загрузка...
Рейтинг →
 (голосов: 1, оценка 4/5, голосовать можно 1 раз )

Другие торренты по теме:

  • Берлин зовет / Berlin Calling (2008) HDRip 720p торрент скачать бесплатно
  • Дорога на Берлин (2015) BDRip лицензия скачать торрент бесплатно
  • Берлин. Июль 1945 (1945) TS скачать торрент бесплатно
  • Дорога на Берлин (2015) DVDRip | Лицензия скачать торрент бесплатно
  • Дорога на Берлин (2015) BDRip 1080p | Лицензия скачать торрент бесплатно
  • Дорога на Берлин (2015) BDRip 720p | Лицензия скачать торрент бесплатно
  • Дорога на Берлин (2015) BDRemux 1080p | Лицензия скачать торрент бесплатно
  • Дорога на Берлин (2015) Blu-Ray 1080 от HDClub | Лицензия скачать торрент бесплатно


    • Комментарии (0):

      Информация

      Информация

        Посетители, находящиеся в группе Гости, не могут оставлять комментарии в данной новости.

        ↓ Меню



        ↓ Опрос

        А Вы добавили сайт в закладки?
        Да
        Не


        Top 10 за неделю (Фильмы)