.
Авторизация | Регистрация
» » Белорусский вокзал (1971) HDTVRip от ExKinoRay скачать торрент бесплатно




    Белорусский вокзал (1971) HDTVRip от ExKinoRay скачать торрент бесплатно

    Опубликовал: Админ | Дата: 4-03-2015, 23:00 | Просмотров: 183


    Детально о кино
    Русское название в мировом прокате:Белорусский вокзал
    Создали в:1971
    Категория жанра:Драма
    Главный режиссер:Андрей Смирнов

    Актеры
    Алексей Глазырин, Евгений Леонов, Анатолий Папанов, Всеволод Сафонов, Нина Ургант, Раиса Куркина, Любовь Соколова, Маргарита Терехова, Никифор Колофидин, Юрий Орлов, Николай Волков мл., Александр Январёв, Валентина Ананьина, Людмила Аринина, Юрий Визбор, Юрий Волынцев, Владимир Грамматиков, Кира Жаркова, Валерий Малышев, Виктор Проскурин, Федор Селезнёв, Елена Скачкова, Николай Граббе, Светлана Данильченко, Петр Морозов, Юрий Будилов, Сергей Байдин, Евгений Николаев, Виктор Разоренов, Станислав Бородокин, Николай Смирнов

    Сюжет фильма

    Герои фильма расстались на Белорусском вокзале летом 1945-го. Спустя четверть века они встречаются на похоронах боевого товарища. В их душах с новой силой оживает пережитое. Время не властно над их памятью: ветераны сохранили верность фронтовой дружбе, способность жертвовать собой, неистребимую любовь к жизни.

    Снималось в:СССР, Мосфильм
    Время просмотра:01:36:17
    Язык:Русский
    Файл
    Кодек для видео:XviD
    Качество фильма:HDTVRip
    Информация о видео:1993 Кбит/с, 720x304
    Информация о звуке:AC3, 2 ch, 192 Кбит/с
    MediaInfo
    Формат : AVI
    Формат/Информация : Audio Video Interleave
    Размер файла : 1,46 Гбайт
    Продолжительность : 1 ч. 35 м.
    Общий поток : 2195 Кбит/сек
    Название фильма : Belorusskij.vokzal.1971.XviD.HDTVRip.ExKinoRay
    Программа кодирования : VirtualDubMod 1.5.10.3 | www.virtualdub-fr.org || (build 2550/release)
    Правообладатель : Rip by Enigma-Vladislav71
    Видео
    Идентификатор : 0
    Формат : MPEG-4 Visual
    Профиль формата : Advanced Simple@L5
    Параметр BVOP формата : 1
    Параметр QPel формата : Нет
    Параметр GMC формата : Без точки перехода
    Параметр матрицы формата : Default (MPEG)
    Идентификатор кодека : XVID
    Идентификатор кодека/Подсказка : XviD
    Продолжительность : 1 ч. 35 м.
    Битрейт : 1993 Кбит/сек
    Ширина : 720 пикс.
    Высота : 304 пикс.
    Соотношение сторон : 2,35:1
    Частота кадров : 25,000 кадр/сек
    Цветовое пространство : YUV
    Подвыборка цветности : 4:2:0
    Битовая глубина : 8 бит
    Тип развёртки : Прогрессивная
    Метод сжатия : С потерями
    Бит/(Пиксели*Кадры) : 0.364
    Размер потока : 1,33 Гбайт (91%)
    Библиотека кодирования : XviD 1.2.1 (UTC 2008-12-04)
    Аудио
    Идентификатор : 1
    Формат : AC-3
    Формат/Информация : Audio Coding 3
    Расширение режима : CM (complete main)
    Идентификатор кодека : 2000
    Продолжительность : 1 ч. 35 м.
    Вид битрейта : Постоянный
    Битрейт : 192 Кбит/сек
    Каналы : 2 канала
    Расположение каналов : Front: L R
    Частота : 48,0 КГц
    Битовая глубина : 16 бит
    Метод сжатия : С потерями
    Размер потока : 131 Мбайт (9%)
    Выравнивание : Разделение по промежуткам
    Продолжительность промежутка : 40 мс. (1,00 видеокадр)

    Скриншоты

    Релиз подготовил:
    Авторы релиза:
    Залил: Vladislav71
    Размер скачиваемого торрента: 1.46 GB (1568069632 Bytes)

    Белорусский вокзал (1971) HDTVRip от ExKinoRay
    загрузка...
    Рейтинг →
     (голосов: 1, оценка 5/5, голосовать можно 1 раз )

    Другие торренты по теме:

  • Неизвестная версия: Белорусский вокзал скачать через торрент бесплатно
  • Белорусский вокзал / 1970 / РУ / WEBRip (1080p) торрент скачать бесплатно
  • Белорусский вокзал / 1970 / РУ / HDTVRip скачать торрент бесплатно
  • Белорусский вокзал (1971) BDRip 720p скачать торрент бесплатно
  • Белорусский вокзал (1971) BDRemux 1080p скачать торрент бесплатно
  • Белорусский вокзал (1971) BDRip от HQCLUB скачать торрент бесплатно
  • Белорусский вокзал (1971) BDRip-AVC скачать торрент бесплатно
  • Белорусский вокзал (1970) BDRip от HQ-ViDEO скачать торрент бесплатно


    • Комментарии (0):

      Информация

      Информация

        Посетители, находящиеся в группе Гости, не могут оставлять комментарии в данной новости.

        ↓ Меню



        ↓ Опрос

        А Вы добавили сайт в закладки?
        Да
        Не


        Top 10 за неделю (Фильмы)