.
Авторизация | Регистрация
» » Хоббит: Битва пяти воинств / The Hobbit: The Battle of the Five Armies (2014) WEB-DLRip | КПК | iTunes скачать торрент бесплатно




    Хоббит: Битва пяти воинств / The Hobbit: The Battle of the Five Armies (2014) WEB-DLRip | КПК | iTunes скачать торрент бесплатно

    Опубликовал: Админ | Дата: 5-03-2015, 10:00 | Просмотров: 161


    Создали в: 2014
    Снималось в: Новая Зеландия, США
    Категория жанра: фэнтези, приключения
    Главный режиссер: Питер Джексон/Peter Jackson

    Актеры
    Мартин Фриман, Иэн МакКеллен, Ричард Армитедж, Люк Эванс, Эванджелин Лилли, Ли Пейс, Орландо Блум, Бенедикт Камбербэтч, Кен Стотт, Эйдан Тернер
    Описание: Когда отряд из тринадцати гномов нанимал хоббита Бильбо Бэгинса в качестве взломщика и четырнадцатого, счастливого, участника похода к Одинокой горе, Бильбо полагал, что его приключения закончатся, когда он выполнит свою задачу — найдет сокровище, которое так необходимо предводителю гномов Торину. Путешествие в Эребор, захваченное драконом Смаугом королевство гномов, оказалось еще более опасным, чем предполагали гномы и даже Гэндальф — мудрый волшебник, протянувший Торину и его отряду руку помощи.
    В погоню за гномами устремилась армия орков, ведомых пробудившимся в руинах древним злом, а эльфы и люди, с которыми Бильбо и его товарищам пришлось иметь дело во время путешествия и которые пострадали от последствий желания гномов вернуть свой дом, предъявили права на щедрое вознаграждение — часть сокровищ Одинокой горы. Скоро неподалеку от Одинокой горы встретятся пять армий, и лишь кровопролитная битва определит результаты смелого гномьего похода.
    Время просмотра: 02:24:16
    Перевод текста: Дубляж - iTunes
    Субтитры подготовлены:русские - вшитые, на речь орков и эльфов
    Файл
    Тип видео: MPEG-4
    Качество фильма: WEB-DLRip
    Информация о видео: 500 K28b/s, 480x208
    Информация о звуке: AAC, 128 Kb/s (2 ch)
    MediaInfo

    Полное имя : F:Загруженные файлыHobbit.Bitva.Pyati.Voinstv.2014.mp4
    Формат : MPEG-4
    Профиль формата : Base Media
    Идентификатор кодека : isom
    Размер файла : 657 MiB
    Продолжительность : 2h 24mn
    Режим общего битрейта : Variable
    Общий поток : 636 Kbps
    Дата кодирования : UTC 2015-03-04 03:07:10
    Дата пометки : UTC 2015-03-04 03:07:10
    Программа кодирования : XviD4PSP 6.0/54.29.105
    Video
    Идентификатор : 1
    Формат : MPEG-4 Visual
    Профиль формата : Fine Granularity Scalable@L1
    Параметр BVOP формата : Yes
    Параметр QPel формата : No
    Параметр GMC формата : No warppoints
    Параметр матрицы формата : Default (H.263)
    Идентификатор кодека : 20
    Продолжительность : 2h 24mn
    Вид битрейта : Variable
    Битрейт : 500 Kbps
    Максимальный битрейт : 5 000 Kbps
    Ширина : 480 pixels
    Высота : 208 pixels
    Соотношение сторон : 2.35:1
    Режим частоты кадров : Constant
    Частота кадров : 30.000 fps
    Цветовое пространство : YUV
    Субдискретизация насыщенности : 4:2:0
    Битовая глубина : 8 bits
    Тип развёртки : Progressive
    Метод сжатия : Lossy
    Бит/(Пиксели*Кадры) : 0.167
    Размер потока : 517 MiB (79%)
    Библиотека кодирования : Lavc54.60.100
    Язык : English
    Дата кодирования : UTC 2015-03-04 03:07:10
    Дата пометки : UTC 2015-03-04 03:07:10
    Audio
    Идентификатор : 2
    Формат : AAC
    Формат/Информация : Advanced Audio Codec
    Профиль формата : LC
    Идентификатор кодека : 40
    Продолжительность : 2h 24mn
    Вид битрейта : Constant
    Битрейт : 128 Kbps
    Каналы : 2 channels
    Расположение каналов : Front: L R
    Частота : 44.1 KHz
    Метод сжатия : Lossy
    Размер потока : 132 MiB (20%)
    Язык : Russian


    Скриншоты:

    Размер скачиваемого торрента: 657.28 MB (689206538 Bytes)

    Хоббит: Битва пяти воинств/The Hobbit: The Battle of the Five Armies (2014) WEB-DLRip | КПК | iTunes
    загрузка...
    Рейтинг →
     (голосов: 1, оценка 4/5, голосовать можно 1 раз )

    Другие торренты по теме:

  • Хоббит: Битва пяти воинств / The Hobbit: The Battle of the Five Armies (2014) HD 1080p | Трейлер торрент скачать бесплатно
  • Хоббит: Битва пяти воинств (2014) HDRip скачать торрент бесплатно
  • OST - Хоббит: Битва пяти воинств / The Hobbit: The Battle Of The Five Armies - Original Motion Picture Soundtrack (Special Edition) скачать через торрент бесплатно
  • Хоббит: Битва пяти воинств / The Hobbit: The Battle of the Five Armies (2014) DVDScr | Чистый звук торрент скачать бесплатно
  • Хоббит: Битва пяти воинств / The Hobbit: The Battle of the Five Armies (2014) WEBRip | Чистый звук скачать через торрент бесплатно
  • Хоббит: Битва пяти воинств / The Hobbit: The Battle of the Five Armies (2014) WEB-DL 1080p | iTunes скачать торрент бесплатно
  • Хоббит: Битва пяти воинств / The Hobbit: The Battle of the Five Armies (2014) BDRip 1080p | iTunes Russia скачать торрент бесплатно
  • Хоббит: Битва пяти воинств / The Hobbit: The Battle of the Five Armies (2014) HDRip от ENGINEER | iTunes скачать торрент бесплатно


    • Комментарии (0):

      Информация

      Информация

        Посетители, находящиеся в группе Гости, не могут оставлять комментарии в данной новости.

        ↓ Меню



        ↓ Опрос

        А Вы добавили сайт в закладки?
        Да
        Не


        Top 10 за неделю (Фильмы)