.
Авторизация | Регистрация
» » Оставшийся / The Remaining (2014) BDRip 720p | KinoGadget | iPad скачать торрент бесплатно




    Оставшийся / The Remaining (2014) BDRip 720p | KinoGadget | iPad скачать торрент бесплатно

    Опубликовал: Админ | Дата: 5-03-2015, 22:00 | Просмотров: 118


    Создали в: 2014
    Снималось в: США
    Категория жанра: ужасы, триллер
    Время просмотра: 01:27:50
    Перевод текста: Профессиональный многоголосый
    Главный режиссер: Кэйси Ла Скала

    Актеры
    Джонни Пакар, Шон Сайпос, Брайан Дечарт, Алекса ПенаВега, Италиа Риччи, Джон Пайпер-Фергюсон, Ким Пачеко, Хейли Ловитт, Эрин Мерфи
    Описание: Несколько молодых людей собираются вместе, чтобы отпраздновать свадьбу двух своих друзей. Во время празднования происходит череда катастрофических событий, которая превращает празднование в борьбу не на жизнь, а на смерть. Герои отчаянно сражаются за свое убежище, за свои жизни с врагом, которого они никогда не встречали…

    Информация о видео кодек:MPEG-4 AVC
    Качество фильма:BDRip 720p
    Параметры Видео:1280x688, 23.976 fps; ~2 031 kbps avg
    Параметры Звука:48.0 KHz, AAC, ~164.00 kbps avg, 2ch
    Тип видео:mp4
    Релиз:
    Meta Tags


    MI
    General
    Complete name : E:Ostavshiesya.2014.P.BDRip.720p_KinoGadget.mp4
    Format : MPEG-4
    Format profile : Base Media
    Codec ID : isom
    File size : 1.35 GiB
    Duration : 1h 27mn
    Overall bit rate mode : Variable
    Overall bit rate : 2 203 Kbps
    Movie name : Оставшийся
    Performer : Кэйси Ла Скала
    Genre : Horror, Thriller
    ContentType : Short Film
    Recorded date : 2014
    Encoded date : UTC 2015-03-05 16:40:17
    Tagged date : UTC 2015-03-05 16:46:17
    Cover : Yes
    ContentRating : mpaa|PG-13|300|
    LongDeion : Несколько молодых людей собираются вместе, чтобы отпраздновать свадьбу двух своих друзей. Во время празднования происходит череда катастрофических событий, которая превращает празднование в борьбу не на жизнь, а на смерть. Герои отчаянно сражаются за свое убежище, за свои жизни с врагом, которого они никогда не встречали…
    HDVideo : Yes
    Video
    ID : 1
    Format : AVC
    Format/Info : Advanced Video Codec
    Format profile : High@L4.1
    Format settings, CABAC : Yes
    Format settings, ReFrames : 9 frames
    Codec ID : avc1
    Codec ID/Info : Advanced Video Coding
    Duration : 1h 27mn
    Bit rate : 2 031 Kbps
    Maximum bit rate : 12.2 Mbps
    Width : 1 280 pixels
    Height : 688 pixels
    Display aspect ratio : 1.85:1
    Frame rate mode : Constant
    Frame rate : 23.976 fps
    Color space : YUV
    Chroma subsampling : 4:2:0
    Bit depth : 8 bits
    Scan type : Progressive
    Bits/(Pixel*Frame) : 0.096
    Stream size : 1.25 GiB (92%)
    Writing library : x264 core 142 r2431 ac76440
    Encoding settings : cabac=1/ref=9/deblock=1:-1:-1/analyse=0x3:0x133/me=umh/subme=10/psy=1/psy_rd=1.00:0.20/mixed_ref=1/me_range=24/chroma_me=1/trellis=2/8x8dct=1/cqm=0/deadzone=21,11/fast_pskip=1/chroma_qp_offset=-3/threads=3/lookahead_threads=1/sliced_threads=0/nr=0/decimate=1/interlaced=0/bluray_compat=0/constrained_intra=0/bframes=4/b_pyramid=2/b_adapt=2/b_bias=0/direct=3/weightb=1/open_gop=0/weightp=2/keyint=240/keyint_min=23/scenecut=40/intra_refresh=0/rc_lookahead=60/rc=crf/mbtree=1/crf=21.0/qcomp=0.60/qpmin=0/qpmax=69/qpstep=4/ip_ratio=1.40/aq=1:1.40
    Encoded date : UTC 2015-03-04 22:27:58
    Tagged date : UTC 2015-03-05 16:40:48
    Audio
    ID : 2
    Format : AAC
    Format/Info : Advanced Audio Codec
    Format profile : LC
    Codec ID : 40
    Duration : 1h 27mn
    Duration_FirstFrame : 64ms
    Bit rate mode : Variable
    Bit rate : 164 Kbps
    Maximum bit rate : 252 Kbps
    Channel count : 2 channels
    Channel positions : Front: L R
    Sampling rate : 48.0 KHz
    Compression mode : Lossy
    Stream size : 103 MiB (7%)
    Language : Russian
    Tagged date : UTC 2015-03-05 16:40:48

    Скриншоты


    Залил: KinoGadget
    Размер скачиваемого торрента: 1.35 GB (1451482028 Bytes)

    Оставшийся/The Remaining (2014) BDRip 720p | KinoGadget | iPad
    загрузка...
    Рейтинг →
     (голосов: 1, оценка 5/5, голосовать можно 1 раз )

    Другие торренты по теме:



      Комментарии (0):

      Информация

      Информация

        Посетители, находящиеся в группе Гости, не могут оставлять комментарии в данной новости.

        ↓ Меню



        ↓ Опрос

        А Вы добавили сайт в закладки?
        Да
        Не


        Top 10 за неделю (Фильмы)