.
Авторизация | Регистрация
Хочешь лучшие торренты? Добавь свой email!
Добавить
» » Клоун / Clown (2014) WEB-DL 720p | L2, L1 торрент скачать бесплатно




    Клоун / Clown (2014) WEB-DL 720p | L2, L1 торрент скачать бесплатно

    Опубликовал: Админ | Дата: 6-03-2015, 00:00 | Просмотров: 192


    Детально о кино
    Русское название: Клоун
    Русское название в мировом прокате: Clown
    Создали в: 2014
    Категория жанра: ужасы, драма
    Главный режиссер: Джонатан Уоттс

    Актеры
    Петер Стормаре, Элай Рот, Лаура Аллен, Элизабет Уитмер, Кристиан Дистефано, Джон МакДональд, Джулия А. Лонг, Чак Шамата, Сара Схеффер, Энди Пауэрс

    Сюжет фильма
    Любящий отец специально для дня рождения сына находит костюм клоуна, но он и не подозревал, что на этот костюм наложено проклятье, которое превращает его владельца в убийцу.


    Снималось в: США, Канада/Cross Creek Pictures, PS 260, Vertebra Films, Zed Filmworks
    Время просмотра: 01:39:19
    Тип перевода:Любительское (двухголосое) DeadSno den904/Любительское (одноголосое) den904 - перевод на русский язык dsa69
    Файл
    Тип видео: MKV
    Качество фильма: WEB-DL 720p
    Информация о видео: 3966 kb/s, 1280x718
    Информация о звуке: Russian L2: AC3, 192 kb/s (2 ch)/Russian L1: AC3, 192 kb/s (2 ch)/English: AC3, 384 kb/s (6 ch)


    MI

    Format : Matroska
    Format version : Version 4/Version 2
    File size : 3.35 GiB
    Duration : 1h 39mn
    Overall bit rate : 4 826 Kbps
    Encoded date : UTC 2015-03-05 18:50:32
    Writing application : mkvmerge v6.1.0 (;Old Devil;) built on Mar 4 2013 09:10:42
    Writing library : libebml v1.3.0 + libmatroska v1.4.0
    Video
    ID : 1
    Format : AVC
    Format/Info : Advanced Video Codec
    Format profile : High@L3.1
    Format settings, CABAC : No
    Format settings, ReFrames : 2 frames
    Codec ID : V_MPEG4/ISO/AVC
    Duration : 1h 39mn
    Bit rate : 3 962 Kbps
    Width : 1 280 pixels
    Height : 718 pixels
    Display aspect ratio : 16:9
    Frame rate : 24.000 fps
    Color space : YUV
    Chroma subsampling : 4:2:0
    Bit depth : 8 bits
    Scan type : Progressive
    Bits/(Pixel*Frame) : 0.180
    Stream size : 2.75 GiB (82%)
    Language : English
    Default : Yes
    Forced : No
    Color primaries : BT.709-5, BT.1361, IEC 61966-2-4, SMPTE RP177
    Transfer characteristics : BT.709-5, BT.1361
    Matrix coefficients : BT.709-5, BT.1361, IEC 61966-2-4 709, SMPTE RP177
    Audio #1
    ID : 2
    Format : AC-3
    Format/Info : Audio Coding 3
    Mode extension : CM (complete main)
    Format settings, Endianness : Big
    Codec ID : A_AC3
    Duration : 1h 39mn
    Bit rate mode : Constant
    Bit rate : 192 Kbps
    Channel(s) : 2 channels
    Channel positions : Front: L R
    Sampling rate : 48.0 KHz
    Bit depth : 16 bits
    Compression mode : Lossy
    Stream size : 136 MiB (4%)
    Default : Yes
    Forced : No
    Audio #2
    ID : 3
    Format : AC-3
    Format/Info : Audio Coding 3
    Mode extension : CM (complete main)
    Format settings, Endianness : Big
    Codec ID : A_AC3
    Duration : 1h 39mn
    Bit rate mode : Constant
    Bit rate : 192 Kbps
    Channel(s) : 2 channels
    Channel positions : Front: L R
    Sampling rate : 48.0 KHz
    Bit depth : 16 bits
    Compression mode : Lossy
    Stream size : 136 MiB (4%)
    Default : No
    Forced : No
    Audio #3
    ID : 4
    Format : AC-3
    Format/Info : Audio Coding 3
    Mode extension : CM (complete main)
    Format settings, Endianness : Big
    Codec ID : A_AC3
    Duration : 1h 39mn
    Bit rate mode : Constant
    Bit rate : 384 Kbps
    Channel(s) : 6 channels
    Channel positions : Front: L C R, Side: L R, LFE
    Sampling rate : 48.0 KHz
    Bit depth : 16 bits
    Compression mode : Lossy
    Stream size : 273 MiB (8%)
    Default : No
    Forced : No
    Menu
    00:00:00.000 : en:Chapter 01
    00:15:00.000 : en:Chapter 02
    00:30:00.000 : en:Chapter 03
    00:45:00.000 : en:Chapter 04
    01:00:00.000 : en:Chapter 05
    01:15:00.000 : en:Chapter 06
    Скриншоты

    Размер скачиваемого торрента: 3.35 GB (3594880558 Bytes)

    Клоун/Clown (2014) WEB-DL 720p | L2, L1
    загрузка...
    Рейтинг →
     (голосов: 1, оценка 5/5, голосовать можно 1 раз )

    Другие торренты по теме:

  • Клоун / Klovnen (1917) TVRip | Sub
  • Александр Кошмарный - Клоун с баяном скачать через торрент бесплатно
  • Клоун / Clown (2014) WEB-DLRip | L1
  • Клоун / Clown (2014) HDRip | L1
  • Клоун / Clown (2014) HDRip-AVC | L1
  • Клоун / Clown (2014) WEB-DLRip от Некул
  • Клоун Шейкс / Shakes the Clown (1991) WEB-DL 720р | А
  • Мой любимый клоун / 1986 / РУ / DVB


    • Комментарии (0):

      Информация

      Информация

        Посетители, находящиеся в группе Гости, не могут оставлять комментарии в данной новости.

        ↓ Меню



        ↓ Опрос

        А Вы добавили сайт в закладки?
        Да
        Не


        Top 10 за месяц (Фильмы)