.
Авторизация | Регистрация




В изгнании / Outcast (2014) DVD-9 скачать торрент бесплатно

Опубликовал: Админ | Дата: 7-03-2015, 18:00 | Просмотров: 293


Детально о кино
Русское название:В изгнании
Русское название в мировом прокате:Outcast
Создали в:2014
Категория жанра:Исторический
Главный режиссер:Ник Пауэлл

Актеры
Николас Кейдж, Хейден Кристенсен, Лю Ифэй, Рон Смуренбург, Энди Он, Джавед Эль Берни, Фернандо Чиен, Престон Бэйкер, Байрон Лосон, Томер Оз

Сюжет фильма
Сюжет фильма разворачивается в Китае, в Средние века. Наследник императорского престола становится целью убийства у своего презираемого старшего брата и вынужден бежать. Единственное, что остается молодому принцу, – это защита его сестры при помощи воина-крестоносца, которому, в свою очередь, придется смириться с собственными демонами и, сплотившись с некогда легендарным воином, ныне ставшим бандитом, вернуть принца на его законное место на троне...

Снималось в:Китай, США, Франция
Киностудия:22h22, Media Max Productions, Notorious Films
Время просмотра:01:38:28
Перевод текста:Профессиональный двухголосый закадровый
Файл
Кодек для видео:MPEG-2
Качество фильма:DVD-9
Информация о видео:MPEG2, NTSC 16:9 (720x480) VBR, 23,976 кадра/сек
Информация о звуке:Русский DD 2.0 (192 Kbps), Английский DD 2.0 (384 Kbps)
Меню
DVDInfo
Title:
Size: 4.90 Gb ( 5 141 400 KBytes ) - DVD-9
Enabled regions: 1, 2, 3, 4, 5, 6, 7, 8
VTS_01 :
Play Length: 01:38:28
Video: NTSC 16:9 (720x480) VBR, Auto PanScan
Audio:
Russian (Dolby AC3, 2 ch)
English (Dolby AC3, 6 ch)
Menu Video:
NTSC 4:3 (704x480) VBR
Menu English Language Unit :
Root Menu
MediaInfo
Общее
Полное имя : D:ААА2В ИЗГНАНИИVIDEO_TSVTS_01_1.VOB
Формат : MPEG-PS
Размер файла : 1000 Мбайт
Продолжительность : 20 м.
Режим общего битрейта : Переменный
Общий поток : 6718 Кбит/сек
Видео
Идентификатор : 224 (0xE0)
Формат : MPEG Video
Версия формата : Version 2
Профиль формата : Main@Main
Параметр BVOP формата : Да
Параметр матрицы формата : По умолчанию
Параметр GOP формата : M=3, N=12
Продолжительность : 20 м.
Вид битрейта : Переменный
Битрейт : 5817 Кбит/сек
Максимальный битрейт : 8832 Кбит/сек
Ширина : 720 пикселей
Высота : 480 пикселей
Соотношение сторон : 16:9
Частота кадров : 23,976 кадра/сек
Стандарт вещания : NTSC
Цветовое пространство : YUV
Субдискретизация насыщенности : 4:2:0
Битовая глубина : 8 бит
Тип развёртки : Прогрессивная
Порядок развёртки : 2:3 Pulldown
Метод сжатия : С потерями
Бит/(Пиксели*Кадры) : 0.702
TimeCode_FirstFrame : 00:00:00;00
TimeCode_Source : Group of pictures t_head
Размер потока : 866 Мбайт (87%)
Аудио #1
Идентификатор : 189 (0xBD)-128 (0x80)
Формат : AC-3
Формат/Информация : Audio Coding 3
Расширение режима : CM (complete main)
Параметр Endianness формата : Big
Режим смешивания : DVD-Video
Продолжительность : 20 м.
Вид битрейта : Постоянный
Битрейт : 384 Кбит/сек
Каналы : 2 канала
Расположение каналов : Front: L R
Частота : 48,0 КГц
Битовая глубина : 16 бит
Метод сжатия : С потерями
Размер потока : 57,2 Мбайт (6%)
Аудио #2
Идентификатор : 189 (0xBD)-129 (0x81)
Формат : AC-3
Формат/Информация : Audio Coding 3
Расширение режима : CM (complete main)
Параметр Endianness формата : Big
Режим смешивания : DVD-Video
Продолжительность : 20 м.
Вид битрейта : Постоянный
Битрейт : 384 Кбит/сек
Каналы : 6 каналов
Расположение каналов : Front: L C R, Side: L R, LFE
Частота : 48,0 КГц
Битовая глубина : 16 бит
Метод сжатия : С потерями
Размер потока : 57,2 Мбайт (6%)
Меню





Скриншоты

Релиз:
Залил: YArl
Размер скачиваемого торрента: 4.90 GB (5264793600 Bytes)

В изгнании/Outcast (2014) DVD-9
загрузка...
Рейтинг →
 (голосов: 1, оценка 3/5, голосовать можно 1 раз )

Другие торренты по теме:

  • Война и мир Александра Первого. Наполеон против России. Изгнание (2012) SATRip торрент скачать бесплатно
  • Изгнанные дьяволом / Devils Rejects (2005) BDRip | D торрент скачать бесплатно
  • Последнее изгнание дьявола: Второе пришествие / The Last Exorcism Part II (2013) CAMRip от =Sудья= торрент скачать бесплатно
  • Последнее изгнание дьявола / The Last Exorcism (2010) BDRip 1080p | D торрент скачать бесплатно
  • Последнее изгнание дьявола: Второе пришествие / The Last Exorcism Part II (2013) BDRip-AVC от ExKinoRay | UNRATED | L1 торрент скачать бесплатно
  • Изгнанные из рая / Vyhnn z rje (2001) DVDRip скачать через торрент бесплатно
  • Изгнанные дьяволом / The Devils Rejects (2005) BDRip 720p от Leonardo and Scarabey | Лицензия скачать через торрент бесплатно
  • В изгнании (2014) HDRip торрент скачать бесплатно


    • Комментарии (0):

      Информация

      Информация

        Посетители, находящиеся в группе Гости, не могут оставлять комментарии в данной новости.

        ↓ Меню



        ↓ Опрос

        А Вы добавили сайт в закладки?
        Да
        Не


        Top 10 за неделю (Фильмы)