.
Авторизация | Регистрация
» » Хоббит: Битва пяти воинств / The Hobbit: The Battle of the Five Armies (2014) BDRip 720p | iTunes Russia скачать торрент бесплатно




    Хоббит: Битва пяти воинств / The Hobbit: The Battle of the Five Armies (2014) BDRip 720p | iTunes Russia скачать торрент бесплатно

    Опубликовал: Админ | Дата: 8-03-2015, 21:00 | Просмотров: 132



    Детально о кино
    Русское название: Хоббит: Битва пяти воинств
    Русское название в мировом прокате: The Hobbit: The Battle of the Five Armies
    Создали в: 2014
    Категория жанра:фэнтези, приключения
    Главный режиссер: Питер Джексон

    Актеры
    Мартин Фриман, Иэн МакКеллен, Ричард Армитедж, Джеймс Несбитт, Кен Стотт, Грэм МакТавиш, Уильям Кирчер, Стивен Хантер, Дин О’Горман, Эйдан Тернер


    Сюжет фильма
    Когда отряд из тринадцати гномов нанимал хоббита Бильбо Бэгинса в качестве взломщика и четырнадцатого, счастливого, участника похода к Одинокой горе, Бильбо полагал, что его приключения закончатся, когда он выполнит свою задачу — найдет сокровище, которое так необходимо предводителю гномов Торину. Путешествие в Эребор, захваченное драконом Смаугом королевство гномов, оказалось еще более опасным, чем предполагали гномы и даже Гэндальф — мудрый волшебник, протянувший Торину и его отряду руку помощи.
    В погоню за гномами устремилась армия орков, ведомых пробудившимся в руинах древним злом, а эльфы и люди, с которыми Бильбо и его товарищам пришлось иметь дело во время путешествия и которые пострадали от последствий желания гномов вернуть свой дом, предъявили права на щедрое вознаграждение — часть сокровищ Одинокой горы. Скоро неподалеку от Одинокой горы встретятся пять армий, и лишь кровопролитная битва определит результаты смелого гномьего похода.



    Снималось в: Новая Зеландия, США/New Line Cinema, Metro-Goldwyn-Mayer
    Время просмотра: 02:24:29
    Перевод текста:Профессиональный(полное дублирование)-iTunes

    Файл
    Качество фильма:BDRip 720p
    Тип видео: MKV
    Информация о видео: MPEG4/AVC, 2970 Кбит/сек, 1280х536 (2.40:1), 23.976 кадра/сек
    Информация о звуке 1: AC3, 6 каналов, 384 Кбит/сек |Русский
    Информация о звуке 2: AC3, 2 канала, 192 Кбит/сек |Украинский
    Информация о звуке 3: AC3, 6 каналов, 448 Кбит/сек |Английский
    Субтитры: Русские (Forced, Full), украинские (Forced, Full), английские (Full, SDH)
    Навигация по главам: Есть

    MediaInfo:
    Общее
    Уникальный идентификатор : 174682230014505850666367468461452585434 (0x836A92E18637D370AD41770DD97269DA)
    Полное имя : The Hobbit. The Battle of the Five Armies. (2014) BDRip 720p.mkv
    Формат : Matroska
    Версия формата : Version 2
    Размер файла : 4,03 Гбайт
    Продолжительность : 2 ч. 24 м.
    Общий поток : 3996 Кбит/сек
    Название фильма : The Hobbit. The Battle of the Five Armies. 2014
    Дата кодирования : UTC 2015-03-08 14:32:46
    Программа кодирования : mkvmerge v5.8.0 (;No Sleep/Pillow;) built on Sep 2 2012 15:37:04
    Библиотека кодирования : libebml v1.2.3 + libmatroska v1.3.0

    Видео
    Идентификатор : 1
    Формат : AVC
    Формат/Информация : Advanced Video Codec
    Профиль формата : High@L4.1
    Параметр CABAC формата : Да
    Параметр ReFrames формата : 12 кадров
    Идентификатор кодека : V_MPEG4/ISO/AVC
    Продолжительность : 2 ч. 24 м.
    Битрейт : 2970 Кбит/сек
    Ширина : 1280 пикселей
    Высота : 536 пикселей
    Соотношение сторон : 2,40:1
    Режим частоты кадров : Постоянный
    Частота кадров : 23,976 кадра/сек
    Цветовое пространство : YUV
    Субдискретизация насыщенности : 4:2:0
    Битовая глубина : 8 бит
    Тип развёртки : Прогрессивная
    Бит/(Пиксели*Кадры) : 0.181
    Размер потока : 2,92 Гбайт (72%)
    Заголовок : WiNTeaM
    Библиотека кодирования : x264 core 146 r2538 121396c
    Настройки программы : cabac=1/ref=12/deblock=1:-3:-3/analyse=0x3:0x133/me=umh/subme=10/psy=1/psy_rd=1.00:0.07/mixed_ref=1/me_range=64/chroma_me=1/trellis=2/8x8dct=1/cqm=0/deadzone=21,11/fast_pskip=1/chroma_qp_offset=-3/threads=12/lookahead_threads=3/sliced_threads=0/nr=0/decimate=1/interlaced=0/bluray_compat=0/constrained_intra=0/bframes=11/b_pyramid=2/b_adapt=2/b_bias=0/direct=3/weightb=1/open_gop=0/weightp=2/keyint=240/keyint_min=23/scenecut=40/intra_refresh=0/rc_lookahead=240/rc=2pass/mbtree=1/bitrate=2970/ratetol=1.0/qcomp=0.60/qpmin=0/qpmax=69/qpstep=4/cplxblur=20.0/qblur=0.5/vbv_maxrate=40000/vbv_bufsize=30000/nal_hrd=none/filler=0/ip_ratio=1.40/aq=1:1.00
    Язык : English
    Default : Да
    Forced : Нет
    Основные цвета : BT.709
    Характеристики трансфера : BT.709
    Коэффициенты матрицы : BT.709

    Аудио #1
    Идентификатор : 2
    Формат : AC-3
    Формат/Информация : Audio Coding 3
    Расширение режима : CM (complete main)
    Параметр Endianness формата : Big
    Идентификатор кодека : A_AC3
    Продолжительность : 2 ч. 24 м.
    Вид битрейта : Постоянный
    Битрейт : 384 Кбит/сек
    Каналы : 6 каналов
    Расположение каналов : Front: L C R, Side: L R, LFE
    Частота : 48,0 КГц
    Битовая глубина : 16 бит
    Метод сжатия : С потерями
    Размер потока : 397 Мбайт (10%)
    Заголовок : D | iTunes
    Язык : Russian
    Default : Да
    Forced : Нет

    Аудио #2
    Идентификатор : 3
    Формат : AC-3
    Формат/Информация : Audio Coding 3
    Расширение режима : CM (complete main)
    Параметр Endianness формата : Big
    Идентификатор кодека : A_AC3
    Продолжительность : 2 ч. 24 м.
    Вид битрейта : Постоянный
    Битрейт : 192 Кбит/сек
    Каналы : 2 канала
    Расположение каналов : Front: L R
    Частота : 48,0 КГц
    Битовая глубина : 16 бит
    Метод сжатия : С потерями
    Размер потока : 198 Мбайт (5%)
    Заголовок : D | iTunes
    Язык : Ukrainian
    Default : Нет
    Forced : Нет

    Аудио #3
    Идентификатор : 4
    Формат : AC-3
    Формат/Информация : Audio Coding 3
    Расширение режима : CM (complete main)
    Параметр Endianness формата : Big
    Идентификатор кодека : A_AC3
    Продолжительность : 2 ч. 24 м.
    Вид битрейта : Постоянный
    Битрейт : 448 Кбит/сек
    Каналы : 6 каналов
    Расположение каналов : Front: L C R, Side: L R, LFE
    Частота : 48,0 КГц
    Битовая глубина : 16 бит
    Метод сжатия : С потерями
    Размер потока : 463 Мбайт (11%)
    Заголовок : Original
    Язык : English
    Default : Нет
    Forced : Нет

    Текст #1
    Идентификатор : 5
    Формат : UTF-8
    Идентификатор кодека : S_TEXT/UTF8
    Идентификатор кодека/Информация : UTF-8 Plain Text
    Заголовок : Forced
    Язык : Russian
    Default : Да
    Forced : Нет

    Текст #2
    Идентификатор : 6
    Формат : UTF-8
    Идентификатор кодека : S_TEXT/UTF8
    Идентификатор кодека/Информация : UTF-8 Plain Text
    Заголовок : Full
    Язык : Russian
    Default : Нет
    Forced : Нет

    Текст #3
    Идентификатор : 7
    Формат : UTF-8
    Идентификатор кодека : S_TEXT/UTF8
    Идентификатор кодека/Информация : UTF-8 Plain Text
    Заголовок : Forced
    Язык : Ukrainian
    Default : Нет
    Forced : Нет

    Текст #4
    Идентификатор : 8
    Формат : UTF-8
    Идентификатор кодека : S_TEXT/UTF8
    Идентификатор кодека/Информация : UTF-8 Plain Text
    Заголовок : Full | RockandRolla | Hurtom
    Язык : Ukrainian
    Default : Нет
    Forced : Нет

    Текст #5
    Идентификатор : 9
    Формат : UTF-8
    Идентификатор кодека : S_TEXT/UTF8
    Идентификатор кодека/Информация : UTF-8 Plain Text
    Заголовок : Full
    Язык : English
    Default : Нет
    Forced : Нет

    Текст #6
    Идентификатор : 10
    Формат : UTF-8
    Идентификатор кодека : S_TEXT/UTF8
    Идентификатор кодека/Информация : UTF-8 Plain Text
    Заголовок : SDH
    Язык : English
    Default : Нет
    Forced : Нет

    Меню
    00:00:00.000 : en:00:00:00.000
    00:05:12.395 : en:00:05:12.395
    00:12:26.287 : en:00:12:26.287
    00:12:58.528 : en:00:12:58.528
    00:18:36.657 : en:00:18:36.657
    00:23:21.400 : en:00:23:21.400
    00:24:35.391 : en:00:24:35.391
    00:25:43.625 : en:00:25:43.625
    00:27:12.256 : en:00:27:12.256
    00:34:30.110 : en:00:34:30.110
    00:38:27.722 : en:00:38:27.722
    00:39:46.968 : en:00:39:46.968
    00:40:57.580 : en:00:40:57.580
    00:43:54.507 : en:00:43:54.507
    00:49:06.026 : en:00:49:06.026
    00:52:36.320 : en:00:52:36.320
    00:53:53.188 : en:00:53:53.188
    00:56:09.658 : en:00:56:09.658
    00:58:04.731 : en:00:58:04.731
    01:01:57.964 : en:01:01:57.964
    01:07:13.696 : en:01:07:13.696
    01:10:00.446 : en:01:10:00.446
    01:12:29.887 : en:01:12:29.887
    01:16:51.524 : en:01:16:51.524
    01:20:05.926 : en:01:20:05.926
    01:22:15.347 : en:01:22:15.347
    01:24:25.227 : en:01:24:25.227
    01:26:35.899 : en:01:26:35.899
    01:29:18.895 : en:01:29:18.895
    01:31:17.389 : en:01:31:17.389
    01:32:03.852 : en:01:32:03.852
    01:33:01.576 : en:01:33:01.576
    01:35:58.169 : en:01:35:58.169
    01:36:52.432 : en:01:36:52.432
    01:40:16.385 : en:01:40:16.385
    01:48:15.531 : en:01:48:15.531
    01:54:22.439 : en:01:54:22.439
    01:57:41.638 : en:01:57:41.638
    02:00:47.907 : en:02:00:47.907
    02:06:48.434 : en:02:06:48.434
    02:11:31.300 : en:02:11:31.300



    Релиз подготовил:
    Размер скачиваемого торрента: 4.03 GB (4330433437 Bytes)

    Хоббит: Битва пяти воинств/The Hobbit: The Battle of the Five Armies (2014) BDRip 720p | iTunes Russia
    загрузка...
    Рейтинг →
     (голосов: 1, оценка 4/5, голосовать можно 1 раз )

    Другие торренты по теме:

  • Хоббит: Битва пяти воинств / The Hobbit: The Battle of the Five Armies (2014) HD 1080p | Трейлер торрент скачать бесплатно
  • Хоббит: Битва пяти воинств (2014) HDRip скачать торрент бесплатно
  • OST - Хоббит: Битва пяти воинств / The Hobbit: The Battle Of The Five Armies - Original Motion Picture Soundtrack (Special Edition) скачать через торрент бесплатно
  • Хоббит: Битва пяти воинств / The Hobbit: The Battle of the Five Armies (2014) DVDScr | Чистый звук торрент скачать бесплатно
  • Хоббит: Битва пяти воинств / The Hobbit: The Battle of the Five Armies (2014) WEBRip | Чистый звук скачать через торрент бесплатно
  • Хоббит: Битва пяти воинств / The Hobbit: The Battle of the Five Armies (2014) WEB-DL 1080p | iTunes скачать торрент бесплатно
  • Хоббит: Битва пяти воинств / The Hobbit: The Battle of the Five Armies (2014) WEB-DLRip | КПК | iTunes скачать торрент бесплатно
  • Хоббит: Битва пяти воинств / The Hobbit: The Battle of the Five Armies (2014) BDRip 1080p | iTunes Russia скачать торрент бесплатно


    • Комментарии (0):

      Информация

      Информация

        Посетители, находящиеся в группе Гости, не могут оставлять комментарии в данной новости.

        ↓ Меню



        ↓ Опрос

        А Вы добавили сайт в закладки?
        Да
        Не


        Top 10 за неделю (Фильмы)