.
Авторизация | Регистрация
» » Фортитьюд / Fortitude (2014) WEBDLRip | AlexFilm скачать торрент бесплатно




    Фортитьюд / Fortitude (2014) WEBDLRip | AlexFilm скачать торрент бесплатно

    Опубликовал: Админ | Дата: 9-03-2015, 10:00 | Просмотров: 170


    Детально о кино
    Русское название:Фортитьюд
    Русское название в мировом прокате:Fortitude
    Создали в:2014
    Категория жанра:триллер, драма, детектив
    Главный режиссер:Сэм Миллер, Хетти Макдональд, Ник Харран

    Актеры
    Ричард Дормер, Софи Гробёль, Стэнли Туччи, Майкл Гэмбон, Джонни Харрис, Николас Пиннок, Вероника Эчеги, Джессика Рэйн, Сиенна Гиллори, Бьерн Хлинур Харальдссон

    Сюжет фильма

    Очередное убийство в сонном городке — на этот раз на краю Арктики. Детектив Мортон прибывает в полярный Фортитьюд, чтобы расследовать волну загадочных преступлений в живописном и некогда тихом местечке.
    Официальный сайт
    Снималось в:Великобритания
    Киностудия:Fifty Fathoms and Tiger Aspect Productions, Endemol UK
    Время просмотра:~00:45:00 серия
    Перевод текста:Профессиональный (многоголосый закадровый) AlexFilm
    Перевод текстачик:Константин Кривоногов
    Монтаж и сведение звука:Михаил Шорыгин
    Роли озвучивали:Татьяна Манентина, Михаил Суслов, Владимир Курдов, Сергей Пономарёв
    Файл
    Кодек для видео:XviD/AC3
    Качество фильма:WEBDLRip
    Информация о видео:MPEG4, XviD, 720x400 (16:9), 25.000 fps, 1 402 Kbps (0.195 bit/pixel)
    Информация о звуке:
    Аудио #1: AC-3, 48.0 KHz, 2 ch, 192 Kbps, CBR rus
    Аудио #2: AC-3, 48.0 KHz, 2 ch, 192 Kbps, CBR eng
    Скриншоты
    Screenshots
    Повтор скриншотов
    MediaInfo
    General
    Complete name : Fortitude.s01e01.WEB-DLRip.Rus.Eng.AlexFilm.avi
    Format : AVI
    Format/Info : Audio Video Interleave
    File size : 616 MiB
    Duration : 47mn 51s
    Overall bit rate : 1 800 Kbps
    Movie name : Fortitude 1x01 @ AlexFilm
    Writing application : VirtualDubMod 1.5.10.2 (build 2542/release)
    Video
    ID : 0
    Format : MPEG-4 Visual
    Format profile : Advanced Simple@L5
    Format settings, BVOP : 1
    Format settings, QPel : No
    Format settings, GMC : No warppoints
    Format settings, Matrix : Default (MPEG)
    Codec ID : XVID
    Codec ID/Hint : XviD
    Duration : 47mn 51s
    Bit rate : 1 402 Kbps
    Width : 720 pixels
    Height : 400 pixels
    Display aspect ratio : 16:9
    Frame rate : 25.000 fps
    Color space : YUV
    Chroma subsampling : 4:2:0
    Bit depth : 8 bits
    Scan type : Progressive
    Compression mode : Lossy
    Bits/(Pixel*Frame) : 0.195
    Stream size : 480 MiB (78%)
    Writing library : XviD 1.2.1 (UTC 2008-12-04)
    Audio #1
    ID : 1
    Format : AC-3
    Format/Info : Audio Coding 3
    Mode extension : CM (complete main)
    Format settings, Endianness : Big
    Codec ID : 2000
    Duration : 47mn 51s
    Bit rate mode : Constant
    Bit rate : 192 Kbps
    Channel(s) : 2 channels
    Channel positions : Front: L R
    Sampling rate : 48.0 KHz
    Bit depth : 16 bits
    Compression mode : Lossy
    Stream size : 65.7 MiB (11%)
    Alignment : Split accross interleaves
    Interleave, duration : 40 ms (1.00 video frame)
    Interleave, preload duration : 500 ms
    Title : Russian (AlexFilm)
    Audio #2
    ID : 2
    Format : AC-3
    Format/Info : Audio Coding 3
    Mode extension : CM (complete main)
    Format settings, Endianness : Big
    Codec ID : 2000
    Duration : 47mn 51s
    Bit rate mode : Constant
    Bit rate : 192 Kbps
    Channel(s) : 2 channels
    Channel positions : Front: L R
    Sampling rate : 48.0 KHz
    Bit depth : 16 bits
    Compression mode : Lossy
    Stream size : 65.7 MiB (11%)
    Alignment : Split accross interleaves
    Interleave, duration : 40 ms (1.00 video frame)
    Interleave, preload duration : 500 ms
    Title : English

    Размер скачиваемого торрента: 2.39 GB (2561572864 Bytes)

    Фортитьюд/Fortitude (2014) WEBDLRip | AlexFilm
    загрузка...
    Рейтинг →
     (голосов: 1, оценка 4/5, голосовать можно 1 раз )

    Другие торренты по теме:

  • Фортитьюд / Fortitude (2014-2015) WEB-DLRip | L2 скачать торрент бесплатно
  • Фортитьюд / Fortitude (2015) WEB-DLRip | NEON Studio скачать торрент бесплатно
  • Фортитьюд / Fortitude (2015) WEB-DLRip 720р | NEON Studio скачать торрент бесплатно
  • Фортитьюд / Fortitude (2015) WEB-DLRip 720р | NEON Studio скачать торрент бесплатно
  • Фортитьюд / Fortitude (2015) WEB-DLRip | NEON Studio скачать торрент бесплатно
  • Фортитьюд / Fortitude (2017) HDTVRip | RusFilm скачать торрент бесплатно
  • Фортитьюд / Fortitude (2017) HDTV 720р | RusFilm скачать торрент бесплатно
  • Фортитьюд / Fortitude (2017) HDTV 720р | RusFilm скачать торрент бесплатно


    • Комментарии (0):

      Информация

      Информация

        Посетители, находящиеся в группе Гости, не могут оставлять комментарии в данной новости.

        ↓ Меню



        ↓ Опрос

        А Вы добавили сайт в закладки?
        Да
        Не


        Top 10 за неделю (Фильмы)