.
Авторизация | Регистрация
Хочешь лучшие торренты? Добавь свой email!
Добавить
» » Бёрдмэн / Birdman (2014) BDRip 720p | KinoGadget | iPad торрент скачать бесплатно




    Бёрдмэн / Birdman (2014) BDRip 720p | KinoGadget | iPad торрент скачать бесплатно

    Опубликовал: Админ | Дата: 9-03-2015, 21:00 | Просмотров: 130


    Создали в: 2014
    Снималось в: США, Канада
    Категория жанра: драма, комедия
    Время просмотра: 01:59:50
    Перевод текста: Дублированный
    Главный режиссер: Алехандро Гонсалес Иньярриту

    Актеры
    Майкл Китон, Зак Галифианакис, Эдвард Нортон, Андреа Райзборо, Эми Райан, Эмма Стоун, Наоми Уоттс, Кенни Чин, Жамаль Гаррисон-Лоу, Джереми Шамос
    Описание: В центре сюжета бывший актер, некогда сыгравший роль популярного супергероя Бёрдмэна, и теперь, переступая через свое эго, он решает принять участие в новой бродвейской постановке с целью вернуть себе былую славу, блеск и величие.

    Информация о видео кодек:MPEG-4 AVC
    Качество фильма:BDRip 720p
    Параметры Видео:1280x688, 23.976 fps; ~2 213 kbps avg
    Параметры Звука:48.0 KHz, AAC, ~165.00 kbps avg, 2ch
    Тип видео:mp4
    Релиз:
    Meta Tags


    MI
    General
    Complete name : E:Byordmen.2014.D.BDRip.720p_KinoGadget.mp4
    Format : MPEG-4
    Format profile : Base Media
    Codec ID : isom
    File size : 1.99 GiB
    Duration : 1h 59mn
    Overall bit rate mode : Variable
    Overall bit rate : 2 386 Kbps
    Movie name : Бёрдмэн
    Performer : Алехандро Гонсалес Иньярриту
    Genre : Comedy, Drama
    ContentType : Short Film
    Recorded date : 2014
    Encoded date : UTC 2015-03-09 12:35:04
    Tagged date : UTC 2015-03-09 15:49:27
    Cover : Yes
    ContentRating : mpaa|R|400|
    LongDeion : В центре сюжета бывший актер, некогда сыгравший роль популярного супергероя Бёрдмэна, и теперь, переступая через свое эго, он решает принять участие в новой бродвейской постановке с целью вернуть себе былую славу, блеск и величие.
    HDVideo : Yes
    Video
    ID : 1
    Format : AVC
    Format/Info : Advanced Video Codec
    Format profile : High@L4.1
    Format settings, CABAC : Yes
    Format settings, ReFrames : 9 frames
    Codec ID : avc1
    Codec ID/Info : Advanced Video Coding
    Duration : 1h 59mn
    Bit rate : 2 213 Kbps
    Maximum bit rate : 8 064 Kbps
    Width : 1 280 pixels
    Height : 688 pixels
    Display aspect ratio : 1.85:1
    Frame rate mode : Constant
    Frame rate : 23.976 fps
    Color space : YUV
    Chroma subsampling : 4:2:0
    Bit depth : 8 bits
    Scan type : Progressive
    Bits/(Pixel*Frame) : 0.105
    Stream size : 1.84 GiB (93%)
    Writing library : x264 core 142 r2431 ac76440
    Encoding settings : cabac=1/ref=9/deblock=1:-1:-1/analyse=0x3:0x133/me=umh/subme=10/psy=1/psy_rd=1.00:0.20/mixed_ref=1/me_range=24/chroma_me=1/trellis=2/8x8dct=1/cqm=0/deadzone=21,11/fast_pskip=1/chroma_qp_offset=-3/threads=3/lookahead_threads=1/sliced_threads=0/nr=0/decimate=1/interlaced=0/bluray_compat=0/constrained_intra=0/bframes=4/b_pyramid=2/b_adapt=2/b_bias=0/direct=3/weightb=1/open_gop=0/weightp=2/keyint=240/keyint_min=23/scenecut=40/intra_refresh=0/rc_lookahead=60/rc=crf/mbtree=1/crf=21.0/qcomp=0.60/qpmin=0/qpmax=69/qpstep=4/ip_ratio=1.40/aq=1:1.50
    Encoded date : UTC 2015-03-08 20:25:05
    Tagged date : UTC 2015-03-09 12:35:45
    Audio
    ID : 2
    Format : AAC
    Format/Info : Advanced Audio Codec
    Format profile : LC
    Codec ID : 40
    Duration : 1h 59mn
    Duration_FirstFrame : 64ms
    Bit rate mode : Variable
    Bit rate : 165 Kbps
    Maximum bit rate : 254 Kbps
    Channel count : 2 channels
    Channel positions : Front: L R
    Sampling rate : 48.0 KHz
    Compression mode : Lossy
    Stream size : 141 MiB (7%)
    Language : Russian
    Tagged date : UTC 2015-03-09 12:35:45

    Скриншоты


    Залил: KinoGadget
    Размер скачиваемого торрента: 1.99 GB (2134627616 Bytes)

    Бёрдмэн/Birdman (2014) BDRip 720p | KinoGadget | iPad
    загрузка...
    Рейтинг →
     (голосов: 1, оценка 5/5, голосовать можно 1 раз )

    Другие торренты по теме:

  • Бёрдмэн / Birdman (2014) DVDScr | Sub скачать через торрент бесплатно
  • Бёрдмэн (2015)
  • Бёрдмэн / Birdman (2014) WEB-DLRip | Чистый звук скачать через торрент бесплатно
  • Бёрдмэн / Birdman (2014) WEB-DL 720p | Чистый звук скачать через торрент бесплатно
  • Бёрдмэн / Birdman (2014) HDRip | Чистый звук
  • Бёрдмэн / Birdman (2014) BDRip-AVC от New-Team | D | Чистый звук
  • Бёрдмэн / Birdman (2014) BDRip 720p | A
  • Бёрдмэн / Birdman (2014) HDRip | iTunes скачать через торрент бесплатно


    • Комментарии (0):

      Информация

      Информация

        Посетители, находящиеся в группе Гости, не могут оставлять комментарии в данной новости.

        ↓ Меню



        ↓ Опрос

        А Вы добавили сайт в закладки?
        Да
        Не


        Top 10 за месяц (Фильмы)