.
Авторизация | Регистрация
Хочешь лучшие торренты? Добавь свой email!
Добавить
» » Игра в имитацию / The Imitation Game (2014) BDRip 720p от MediaClub | D торрент скачать бесплатно




    Игра в имитацию / The Imitation Game (2014) BDRip 720p от MediaClub | D торрент скачать бесплатно

    Опубликовал: Админ | Дата: 9-03-2015, 23:00 | Просмотров: 140


    Детально о кино
    Русское название:Игра в имитацию
    Русское название в мировом прокате:The Imitation Game
    Создали в:2014
    Категория жанра:Драма, военный, биография
    Главный режиссер:Мортен Тильдум

    Актеры
    Бенедикт Камбербэтч, Кира Найтли, Мэттью Гуд, Рори Киннер, Аллен Лич, Мэттью Бирд, Чарльз Дэнс, Марк Стронг, Джеймс Норткот, Том Гудман-Хилл, Стивен Вэддингтон, Илан Гудман, Джек Тарлтон, Алекс Лоутер, Джек Бэннон, Таппенс Мидлтон, Доминик Чарман, Джеймс Дж. Нанн, Чарли Мэнтон, Дэвид Чаркхэм

    Сюжет фильма

    1939 год. Британская разведка поручает основоположнику современной информатики Алану Тьюрингу расшифровку секретного кода Энигмы Третьего рейха. В фильме показана работа его блестящей команды в сверхсекретном британском центре взлома шифров и кодов в Блетчли-парке в мрачные дни Второй мировой войны. Экранизация романа Алан Тьюринг: Энигма Эндрю Ходжеса.

    Снималось в:Великобритания, США
    Киностудия:Black Bear Pictures, Bristol Automotive
    Время просмотра:01:54:14
    Перевод текста:Дублированный
    Файл
    Качество фильма:BDRip 720p
    Информация о видео:MPEG-4 AVC, 6317 Кбит/с, 1280x536, 23.976 кадр/с
    Информация о звуке:
    Русский (AC3, 6 ch, 384 Кбит/с)
    Английский (AC3, 6 ch, 384 Кбит/с)
    Субтитры:Русские (А.Матвеев), английские
    Семпл
    MediaInfo
    General
    Format : Matroska
    Format version : Version 2
    File size : 5.65 GiB
    Duration : 1h 54mn
    Overall bit rate : 7 083 Kbps
    Encoded date : UTC 2015-03-09 13:10:25
    Writing application : mkvmerge v5.5.0 (;Healer;) built on Apr 6 2012 21:43:24
    Writing library : libebml v1.2.3 + libmatroska v1.3.0
    Video
    ID : 1
    Format : AVC
    Format/Info : Advanced Video Codec
    Format profile : High@L5.1
    Format settings, CABAC : Yes
    Format settings, ReFrames : 10 frames
    Codec ID : V_MPEG4/ISO/AVC
    Duration : 1h 54mn
    Bit rate : 6 317 Kbps
    Width : 1 280 pixels
    Height : 536 pixels
    Display aspect ratio : 2.40:1
    Frame rate mode : Constant
    Frame rate : 23.976 fps
    Color space : YUV
    Chroma subsampling : 4:2:0
    Bit depth : 8 bits
    Scan type : Progressive
    Bits/(Pixel*Frame) : 0.384
    Stream size : 4.93 GiB (87%)
    Title : The Imitation Game (2014)
    Writing library : x264 core 142 r2431 ac76440
    Encoding settings : cabac=1/ref=10/deblock=1:-1:-1/analyse=0x3:0x133/me=umh/subme=10/psy=1/psy_rd=1.00:0.00/mixed_ref=1/me_range=24/chroma_me=1/trellis=2/8x8dct=1/cqm=0/deadzone=21,11/fast_pskip=1/chroma_qp_offset=-2/threads=8/lookahead_threads=8/sliced_threads=1/slices=8/nr=0/decimate=1/interlaced=0/bluray_compat=0/constrained_intra=0/bframes=10/b_pyramid=2/b_adapt=2/b_bias=0/direct=3/weightb=0/open_gop=0/weightp=2/keyint=240/keyint_min=23/scenecut=40/intra_refresh=0/rc_lookahead=0/rc=2pass/mbtree=0/bitrate=6317/ratetol=1.0/qcomp=0.60/qpmin=10/qpmax=51/qpstep=4/cplxblur=20.0/qblur=0.5/vbv_maxrate=300000/vbv_bufsize=300000/nal_hrd=none/filler=0/ip_ratio=1.40/pb_ratio=1.30/aq=1:1.00
    Language : English
    Default : Yes
    Forced : No
    Matrix coefficients : BT.709
    Audio #1
    ID : 2
    Format : AC-3
    Format/Info : Audio Coding 3
    Mode extension : CM (complete main)
    Format settings, Endianness : Big
    Codec ID : A_AC3
    Duration : 1h 54mn
    Bit rate mode : Constant
    Bit rate : 384 Kbps
    Channel count : 6 channels
    Channel positions : Front: L C R, Side: L R, LFE
    Sampling rate : 48.0 KHz
    Bit depth : 16 bits
    Compression mode : Lossy
    Stream size : 314 MiB (5%)
    Title : Russian
    Language : Russian
    Default : Yes
    Forced : No
    Audio #2
    ID : 3
    Format : AC-3
    Format/Info : Audio Coding 3
    Mode extension : CM (complete main)
    Format settings, Endianness : Big
    Codec ID : A_AC3
    Duration : 1h 54mn
    Bit rate mode : Constant
    Bit rate : 384 Kbps
    Channel count : 6 channels
    Channel positions : Front: L C R, Side: L R, LFE
    Sampling rate : 48.0 KHz
    Bit depth : 16 bits
    Compression mode : Lossy
    Stream size : 314 MiB (5%)
    Title : English
    Language : English
    Default : No
    Forced : No
    Text #1
    ID : 4
    Format : UTF-8
    Codec ID : S_TEXT/UTF8
    Codec ID/Info : UTF-8 Plain Text
    Title : Russian
    Language : Russian
    Default : No
    Forced : No
    Text #2
    ID : 5
    Format : UTF-8
    Codec ID : S_TEXT/UTF8
    Codec ID/Info : UTF-8 Plain Text
    Title : English
    Language : English
    Default : No
    Forced : No
    Menu
    00:00:00.000 : en:Chapter 01
    00:07:58.895 : en:Chapter 02
    00:20:20.010 : en:Chapter 03
    00:28:20.031 : en:Chapter 04
    00:36:59.050 : en:Chapter 05
    00:46:37.127 : en:Chapter 06
    00:57:27.527 : en:Chapter 07
    01:09:35.087 : en:Chapter 08
    01:23:46.688 : en:Chapter 09
    01:29:29.238 : en:Chapter 10
    01:35:09.912 : en:Chapter 11
    01:42:10.499 : en:Chapter 12

    Скриншоты


    Релиз подготовил:
    Размер скачиваемого торрента: 5.65 GB (6068046741 Bytes)

    Игра в имитацию/The Imitation Game (2014) BDRip 720p от MediaClub | D
    загрузка...
    Рейтинг →
     (голосов: 1, оценка 3/5, голосовать можно 1 раз )

    Другие торренты по теме:

  • Карточная игра в дурака (2013) PC | Лицензия
  • Игра в поддавки (2013) WEBRip
  • Игра в ложь / The Lying Game (2012) HDTVRip | DreamRecords
  • Грязный Гарри 5: Игра в смерть / Dirty Harry 5: The Dead Pool (1988) BDRip 1080p
  • Воля к победе / Игра в атаке / Стремительные Сингхи / Breakaway / Speedy Singh (2011) SATRip от Files-x | P
  • Игра в прятки / Прячься и кричи / Hide and go shriek (1988) DVDRip от olegek70 | P
  • Игра в ложь / The Lying Game (2011-2013) WEB-DLRip
  • Грязный Гарри 5: Игра в смерть / Dirty Harry 5: The Dead Pool (1988) BDRip 720p от MediaClub скачать через торрент бесплатно


    • Комментарии (0):

      Информация

      Информация

        Посетители, находящиеся в группе Гости, не могут оставлять комментарии в данной новости.

        ↓ Меню



        ↓ Опрос

        А Вы добавили сайт в закладки?
        Да
        Не


        Top 10 за месяц (Фильмы)