.
Авторизация | Регистрация
» » Простушка / The DUFF (2015) WEB-DLRip от AleksSin | iTunes скачать торрент бесплатно




    Простушка / The DUFF (2015) WEB-DLRip от AleksSin | iTunes скачать торрент бесплатно

    Опубликовал: Админ | Дата: 13-03-2015, 19:00 | Просмотров: 172


    Детально о кино
    Русское название:Простушка
    Русское название в мировом прокате:The DUFF
    Создали в:2015
    Категория жанра:комедия
    Главный режиссер:Эри Сандел

    Актеры
    Мэй Уитман, Робби Амелл, Белла Торн, Бьянка А. Сантос, Скайлер Сэмюэлс, Романи Малко, Ник Эверсман, Крис Уайлд, Кен Жонг, Эллисон Дженни

    Сюжет фильма

    Качок, ботан, рокер, стерва — в каждой компании есть персонажи с такими кличками. Бьянка Пайпер не подозревает, как ее зовут за ее спиной. Подружки списывают у нее физику и берут ее с собой на тусовки, чтобы круче смотреться на ее фоне. Школьный плейбой Уэсли Раш открывает ей глаза на правду… Как Бьянке избавиться от позорного статуса, стать неотразимой и завоевать сердце первого красавца?

    Снималось в:США
    Время просмотра:01:37:07.6
    Перевод текста:Дублированное iTunes
    Файл
    Кодек для видео:AVI (XviD)
    Качество фильма:WEB-DLRip
    Информация о видео:640x288 (2.22:1), 25 fps, XviD build 73 ~935 kbps avg, 0.20 bit/pixel
    Информация о звуке:48 kHz, MPEG Layer 3, 2 ch, ~128.00 kbps avg
    Субтитры:нет
    Семпл
    MediaInfo

    Общее
    Полное имя : S:ФильмыПростушка. 2915. WEB-DLRip. (AleksSin).avi
    Формат : AVI
    Формат/Информация : Audio Video Interleave
    Размер файла : 745 Мбайт
    Продолжительность : 1 ч. 37 м.
    Общий поток : 1073 Кбит/сек
    Программа кодирования : VirtualDubMod 1.5.10.3 | www.virtualdub-fr.org || (build 2550/release)
    Библиотека кодирования : VirtualDubMod build 2550/release
    Видео
    Идентификатор : 0
    Формат : MPEG-4 Visual
    Профиль формата : Advanced Simple@L5
    Параметр BVOP формата : 1
    Параметр QPel формата : Нет
    Параметр GMC формата : Без точки перехода
    Параметр матрицы формата : Выборочная
    Идентификатор кодека : XVID
    Идентификатор кодека/Подсказка : XviD
    Продолжительность : 1 ч. 37 м.
    Битрейт : 935 Кбит/сек
    Ширина : 640 пикс.
    Высота : 288 пикс.
    Соотношение сторон : 2,222
    Частота кадров : 25,000 кадр/сек
    Цветовое пространство : YUV
    Подвыборка цветности : 4:2:0
    Битовая глубина : 8 бит
    Тип развёртки : Прогрессивная
    Метод сжатия : С потерями
    Бит/(Пиксели*Кадры) : 0.203
    Размер потока : 649 Мбайт (87%)
    Библиотека кодирования : XviD 73
    Аудио
    Идентификатор : 1
    Формат : MPEG Audio
    Версия формата : Version 1
    Профиль формата : Layer 3
    Идентификатор кодека : 55
    Идентификатор кодека/Подсказка : MP3
    Продолжительность : 1 ч. 37 м.
    Вид битрейта : Постоянный
    Битрейт : 128 Кбит/сек
    Каналы : 2 канала
    Частота : 48,0 КГц
    Метод сжатия : С потерями
    Размер потока : 88,9 Мбайт (12%)
    Выравнивание : Соединение по промежуткам
    Продолжительность промежутка : 40 мс. (1,00 видеокадр)
    Время предзагрузки промежутка : 504 ms
    Библиотека кодирования : LAME3.99r
    Залил: *AleksSin*
    Размер скачиваемого торрента: 745.13 MB (781330432 Bytes)


    Простушка/The DUFF (2015) WEB-DLRip от AleksSin | iTunes
    загрузка...
    Рейтинг →
     (голосов: 1, оценка 3/5, голосовать можно 1 раз )

    Другие торренты по теме:

  • Простушка (2015) HDRip 720 скачать торрент бесплатно
  • Простушка / The DUFF (2015) WEB-DLRip | D | iTunes скачать торрент бесплатно
  • Простушка / The DUFF (2015) BDRip 1080p | D | iTunes скачать торрент бесплатно
  • Простушка / The DUFF (2015) HDRip от Scarabey | iTunes скачать торрент бесплатно
  • Простушка / The DUFF (2015) HDRip от Scarabey | iTunes скачать торрент бесплатно
  • Простушка / The DUFF (2015) BDRip 720p от KinoGadget | iPad скачать торрент бесплатно
  • Коди Кеплингер - Простушка (2015) FB2, EPUB скачать торрент бесплатно
  • Простушка / The DUFF (2015) Blu-ray 1080p от BLUEBIRD | D | iTunes скачать торрент бесплатно


    • Комментарии (0):

      Информация

      Информация

        Посетители, находящиеся в группе Гости, не могут оставлять комментарии в данной новости.

        ↓ Меню



        ↓ Опрос

        А Вы добавили сайт в закладки?
        Да
        Не


        Top 10 за неделю (Фильмы)