.
Авторизация | Регистрация
» » Написать любовь на её руках / To Write Love on Her Arms (2015) WEB-DLRip от AleksSin | iTunes скачать торрент бесплатно




    Написать любовь на её руках / To Write Love on Her Arms (2015) WEB-DLRip от AleksSin | iTunes скачать торрент бесплатно

    Опубликовал: Админ | Дата: 17-03-2015, 10:00 | Просмотров: 159


    Детально о кино
    Русское название:Написать любовь на её руках
    Русское название в мировом прокате:To Write Love on Her Arms
    Создали в:2015
    Категория жанра:драма, биография, музыка
    Главный режиссер:Нэйтан Франковски

    Актеры
    Кэт Деннингс, Чад Майкл Мюррэй, Руперт Френд, Марк Сауль, Джулиана Харкви, Дрейтон Болл, Тиффани Бэнкс, Кейли Боф, Брэд Бенедикт, Рас Блэквелл

    Сюжет фильма

    Фильм рассказывает о девятнадцатилетней девушке по имени Рени, которая всегда любила сказки: ее идеалы — это принцессы, герои и вечно-счастливый конец. Но жизнь Рени больше похожа на страшную сказку: она борется с наркозависимостью, от которой страдает, а так же с депрессией и членовредительством. В творческой смеси художественной фантазии и суровой реальности, фильм показывает мужество и преодоление всех препятствий в жизни Рени.

    Снималось в:США
    Время просмотра:01:42:25
    Перевод текста:Профессиональное (многоголосое) iTunes
    Файл
    Кодек для видео:AVI (XviD)
    Качество фильма:WEB-DLRip рип с WEB-DL 720p
    Информация о видео:720x304 (2.37:1), 23.976 fps, XviD build 73 ~2085 kbps avg, 0.40 bit/pixel
    Audio #1:48 kHz, AC3 Dolby Digital, 3/2 (L,C,R,l,r) + LFE ch, ~384.00 kbps avg (русский)
    Audio #2:48 kHz, AC3 Dolby Digital, 3/2 (L,C,R,l,r) + LFE ch, ~384.00 kbps avg (английский)
    Субтитры:нет
    Семпл
    MediaInfo

    Общее
    Полное имя : S:ФильмыНаписать любовь на её руках. 2015. WEB-DLRip 2.05 (AleksSin).avi
    Формат : AVI
    Формат/Информация : Audio Video Interleave
    Профиль формата : OpenDML
    Размер файла : 2,05 Гбайт
    Продолжительность : 1 ч. 42 м.
    Общий поток : 2869 Кбит/сек
    Программа кодирования : VirtualDubModRus 1.5.10.2 (build 2542/release)
    Библиотека кодирования : VirtualDubMod build 2542/release
    Видео
    Идентификатор : 0
    Формат : MPEG-4 Visual
    Профиль формата : Advanced Simple@L5
    Параметр BVOP формата : 1
    Параметр QPel формата : Нет
    Параметр GMC формата : Без точки перехода
    Параметр матрицы формата : Выборочная
    Идентификатор кодека : XVID
    Идентификатор кодека/Подсказка : XviD
    Продолжительность : 1 ч. 42 м.
    Битрейт : 2085 Кбит/сек
    Ширина : 720 пикс.
    Высота : 304 пикс.
    Соотношение сторон : 2,35:1
    Частота кадров : 23,976 кадр/сек
    Цветовое пространство : YUV
    Подвыборка цветности : 4:2:0
    Битовая глубина : 8 бит
    Тип развёртки : Прогрессивная
    Метод сжатия : С потерями
    Бит/(Пиксели*Кадры) : 0.397
    Размер потока : 1,49 Гбайт (73%)
    Библиотека кодирования : XviD 73
    Аудио #1
    Идентификатор : 1
    Формат : AC-3
    Формат/Информация : Audio Coding 3
    Расширение режима : CM (complete main)
    Идентификатор кодека : 2000
    Продолжительность : 1 ч. 42 м.
    Вид битрейта : Постоянный
    Битрейт : 384 Кбит/сек
    Каналы : 6 каналов
    Расположение каналов : Front: L C R, Side: L R, LFE
    Частота : 48,0 КГц
    Битовая глубина : 16 бит
    Метод сжатия : С потерями
    Размер потока : 281 Мбайт (13%)
    Выравнивание : Разделение по промежуткам
    Продолжительность промежутка : 42 мс. (1,00 видеокадр)
    Время предзагрузки промежутка : 500 ms
    Аудио #2
    Идентификатор : 2
    Формат : AC-3
    Формат/Информация : Audio Coding 3
    Расширение режима : CM (complete main)
    Идентификатор кодека : 2000
    Продолжительность : 1 ч. 42 м.
    Вид битрейта : Постоянный
    Битрейт : 384 Кбит/сек
    Каналы : 6 каналов
    Расположение каналов : Front: L C R, Side: L R, LFE
    Частота : 48,0 КГц
    Битовая глубина : 16 бит
    Метод сжатия : С потерями
    Размер потока : 281 Мбайт (13%)
    Выравнивание : Разделение по промежуткам
    Продолжительность промежутка : 42 мс. (1,00 видеокадр)
    Время предзагрузки промежутка : 500 ms

    Скриншоты

    Релиз подготовил:
    Залил: *AleksSin*
    Размер скачиваемого торрента: 2.05 GB (2203965440 Bytes)

    Написать любовь на её руках/To Write Love on Her Arms (2015) WEB-DLRip от AleksSin | iTunes
    загрузка...
    Рейтинг →
     (голосов: 1, оценка 4/5, голосовать можно 1 раз )

    Другие торренты по теме:

  • Написать любовь на её руках / To Write Love on Her Arms (2015) WEB-DLRip | iTunes скачать торрент бесплатно


    • Комментарии (0):

      Информация

      Информация

        Посетители, находящиеся в группе Гости, не могут оставлять комментарии в данной новости.

        ↓ Меню



        ↓ Опрос

        А Вы добавили сайт в закладки?
        Да
        Не


        Top 10 за неделю (Фильмы)