.
Авторизация | Регистрация
Хочешь лучшие торренты? Добавь свой email!
Добавить
» » Клик: С пультом по жизни / Click (2006) BDRip-AVC от 0ptimus | D, P торрент скачать бесплатно




    Клик: С пультом по жизни / Click (2006) BDRip-AVC от 0ptimus | D, P торрент скачать бесплатно

    Опубликовал: Админ | Дата: 17-03-2015, 12:21 | Просмотров: 191


    Клик: С пультом по жизни
    | Click |

    Детально о кино
    Русское название:Клик: С пультом по жизни
    Русское название в мировом прокате:Click
    Создали в:2006
    Категория жанра:Фэнтези, комедия
    Главный режиссер:Фрэнк Корачи

    Актеры
    Адам Сэндлер, Кейт Бекинсейл, Кристофер Уокен, Дэвид Хэсселхофф, Генри Уинклер, Джули Кавнер, Шон Остин, Джозеф Кэстэнтон, Джона Хилл, Джейк Хоффман

    Сюжет фильма

    Архитектору-трудоголику попадает в руки пульт дистанционного управления, с помощью которого можно прокручивать жизненные ситуации вперед или назад. Но техника есть техника — у нее всегда сюрприз в запасе. Накопив собственную память, пульт сам начинает управлять скоростью перемотки и выбором момента жизни. Только теперь герой понимает, как неверно он использовал время…

    Снималось в:США
    Киностудия:Columbia Pictures
    Время просмотра:01:47:31
    Перевод текста:Дублированный, профессиональный многоголосый
    Файл
    Кодек для видео:h264
    Качество фильма:BDRip-AVC
    Информация о видео:MPEG-4 AVC, 3499 Кбит/с, 1024x554, 23.976 кадр/с
    Информация о звуке:
    • №1: Русский (AC3, 6 ch, 384 Кбит/с) Дублированный
    • №2: Русский (AC3, 6 ch, 384 Кбит/с) Профессиональный многоголосый Superbit
    • №3: Английский (AC3, 6 ch, 384 Кбит/с)
    Субтитры:Русские, английские
    MediaInfo

    Полное имя : Click.2006.x264.BDRip.(AVC).0ptimus.mkv
    Формат : Matroska
    Версия формата : Version 2
    Размер файла : 3,49 Гбайт
    Продолжительность : 1 ч. 47 м.
    Общий поток : 4653 Кбит/сек
    Название фильма : Клик: С пультом по жизни | Click 2006 -= BDRip (AVC) by 0ptimus =-
    Дата кодирования : UTC 2015-03-16 14:46:49
    Программа кодирования : mkvmerge v6.6.0 (;The Edge Of The In Between;) built on Dec 1 2013 17:55:00
    Библиотека кодирования : libebml v1.3.0 + libmatroska v1.4.1
    Видео
    Идентификатор : 1
    Формат : AVC
    Формат/Информация : Advanced Video Codec
    Профиль формата : High@L4.1
    Параметр CABAC формата : Да
    Параметр ReFrames формата : 8 кадров
    Идентификатор кодека : V_MPEG4/ISO/AVC
    Продолжительность : 1 ч. 47 м.
    Битрейт : 3499 Кбит/сек
    Ширина : 1024 пикселя
    Высота : 554 пикселя
    Соотношение сторон : 1,85:1
    Режим частоты кадров : Постоянный
    Частота кадров : 23,976 кадра/сек
    Цветовое пространство : YUV
    Субдискретизация насыщенности : 4:2:0
    Битовая глубина : 8 бит
    Тип развёртки : Прогрессивная
    Бит/(Пиксели*Кадры) : 0.257
    Размер потока : 2,56 Гбайт (73%)
    Заголовок : Rip by 0ptimus
    Библиотека кодирования : x264 core 124 r2197 69a0443
    Настройки программы : cabac=1/ref=8/deblock=1:-2:-1/analyse=0x3:0x113/me=umh/subme=11/psy=1/psy_rd=1.00:0.20/mixed_ref=1/me_range=32/chroma_me=1/trellis=2/8x8dct=1/cqm=0/deadzone=21,11/fast_pskip=0/chroma_qp_offset=-3/threads=4/sliced_threads=0/nr=0/decimate=0/interlaced=0/bluray_compat=0/constrained_intra=0/bframes=6/b_pyramid=2/b_adapt=2/b_bias=0/direct=3/weightb=1/open_gop=0/weightp=2/keyint=240/keyint_min=23/scenecut=40/intra_refresh=0/rc=2pass/mbtree=0/bitrate=3499/ratetol=1.0/qcomp=0.60/qpmin=0/qpmax=69/qpstep=4/cplxblur=20.0/qblur=0.5/ip_ratio=1.40/pb_ratio=1.30/aq=1:1.00
    Язык : English
    Default : Да
    Forced : Да
    Аудио #1
    Идентификатор : 2
    Формат : AC-3
    Формат/Информация : Audio Coding 3
    Расширение режима : CM (complete main)
    Параметр Endianness формата : Big
    Идентификатор кодека : A_AC3
    Продолжительность : 1 ч. 47 м.
    Вид битрейта : Постоянный
    Битрейт : 384 Кбит/сек
    Каналы : 6 каналов
    Расположение каналов : Front: L C R, Side: L R, LFE
    Частота : 48,0 КГц
    Битовая глубина : 16 бит
    Метод сжатия : С потерями
    Размер потока : 295 Мбайт (8%)
    Заголовок : Дублированный AC3 5.1 @ 384 kbps
    Язык : Russian
    Default : Да
    Forced : Да
    Аудио #2
    Идентификатор : 3
    Формат : AC-3
    Формат/Информация : Audio Coding 3
    Расширение режима : CM (complete main)
    Параметр Endianness формата : Big
    Идентификатор кодека : A_AC3
    Продолжительность : 1 ч. 47 м.
    Вид битрейта : Постоянный
    Битрейт : 384 Кбит/сек
    Каналы : 6 каналов
    Расположение каналов : Front: L C R, Side: L R, LFE
    Частота : 48,0 КГц
    Битовая глубина : 16 бит
    Метод сжатия : С потерями
    Размер потока : 295 Мбайт (8%)
    Заголовок : Многоголосый Superbit AC3 5.1 @ 384 kbps
    Язык : Russian
    Default : Нет
    Forced : Нет
    Аудио #3
    Идентификатор : 4
    Формат : AC-3
    Формат/Информация : Audio Coding 3
    Расширение режима : CM (complete main)
    Параметр Endianness формата : Big
    Идентификатор кодека : A_AC3
    Продолжительность : 1 ч. 47 м.
    Вид битрейта : Постоянный
    Битрейт : 384 Кбит/сек
    Каналы : 6 каналов
    Расположение каналов : Front: L C R, Side: L R, LFE
    Частота : 48,0 КГц
    Битовая глубина : 16 бит
    Метод сжатия : С потерями
    Размер потока : 295 Мбайт (8%)
    Заголовок : AC3 5.1 @ 384 kbps
    Язык : English
    Default : Нет
    Forced : Нет
    Текст #1
    Идентификатор : 5
    Формат : UTF-8
    Идентификатор кодека : S_TEXT/UTF8
    Идентификатор кодека/Информация : UTF-8 Plain Text
    Язык : Russian
    Default : Нет
    Forced : Нет
    Текст #2
    Идентификатор : 6
    Формат : UTF-8
    Идентификатор кодека : S_TEXT/UTF8
    Идентификатор кодека/Информация : UTF-8 Plain Text
    Язык : English
    Default : Нет
    Forced : Нет
    Меню
    00:00:00.000 : :Main Title
    00:07:33.202 : :Swim Meet
    00:11:46.288 : :Exploding Stress
    00:18:26.313 : :The New Remote
    00:22:08.535 : :Wife;s Friend;s Issues
    00:31:15.874 : :Going To The Hamptons
    00:37:47.473 : :Fast Forward Thru Sex
    00:42:38.806 : :Muting Other Drivers
    00:49:20.707 : :New Bikes
    00:54:21.549 : :Fast Forwarding Thru Life
    00:59:31.401 : :New Assistant
    01:06:17.223 : :Making Partner
    01:14:12.656 : :Heart Attach
    01:19:39.024 : :Dads Grave
    01:29:18.853 : :His Last Day
    01:35:02.613 : :Its All A Dream
    Скриншоты

    Релиз подготовил:
    Размер скачиваемого торрента: 3.49 GB (3752139077 Bytes)

    Клик: С пультом по жизни/Click (2006) BDRip-AVC от 0ptimus | D, P
    загрузка...
    Рейтинг →
     (голосов: 1, оценка 5/5, голосовать можно 1 раз )

    Другие торренты по теме:

  • Клик: С пультом по жизни / Click (2006) BDRip | D от R. G. Jolly Roger


    • Комментарии (0):

      Информация

      Информация

        Посетители, находящиеся в группе Гости, не могут оставлять комментарии в данной новости.

        ↓ Меню



        ↓ Опрос

        А Вы добавили сайт в закладки?
        Да
        Не


        Top 10 за месяц (Фильмы)