.
Авторизация | Регистрация
» » Интерстеллар / Interstellar (2014) DVD-9 | IMAX Edition скачать торрент бесплатно




    Интерстеллар / Interstellar (2014) DVD-9 | IMAX Edition скачать торрент бесплатно

    Опубликовал: Админ | Дата: 19-03-2015, 18:00 | Просмотров: 216


    Детально о кино
    Русское название:Интерстеллар
    Русское название в мировом прокате:Interstellar/IMAX Edition
    Создали в:2014
    Категория жанра:Фантастика
    Главный режиссер:Кристофер Нолан

    Актеры
    Мэттью МакКонахи, Энн Хэтэуэй, Джессика Честейн, Маккензи Фой, Майкл Кейн, Дэвид Гяси, Уэс Бентли, Кейси Аффлек, Джон Литгоу, Мэтт Дэймон, Тофер Грэйс, Эллен Бёрстин, Элиес Габел, Тимоти Чаламет, Дэвид Ойелоуо, Коллетт Вульф, Фрэнсис З. МакКарти, Билл Ирвин, Эндрю Борба, Уильям Дивэйн

    Сюжет фильма
    Когда засуха приводит человечество к продовольственному кризису, коллектив исследователей и учёных отправляется сквозь червоточину (которая предположительно соединяет области пространства-времени через большое расстояние) в путешествие, чтобы превзойти прежние ограничения для космических путешествий человека и переселить человечество на другую планету.

    Снималось в:США, Великобритания
    Киностудия:Legendary Pictures, Lynda Obst Productions, Paramount Pictures
    Время просмотра:02:48:53
    Перевод текста:Дублированный, профессиональный многоголосый, авторский
    Файл
    Кодек для видео:MPEG-2
    Качество фильма:DVD-9
    Информация о видео:MPEG2, NTSC 16:9 (720x480) VBR, 23,976 кадра/сек
    Информация о звуке:Русский/Английский DD 5.1 (384 Kbps), Английский DTS (1509 Kbps)
    Перевод

    1. Дублированный (iTunes)
    2. Профессиональный многоголосый (Омикрон)
    3. Авторский (Есарев)
    4. Английский
    5. Английский (DTS)
    Меню
    DVDInfo
    Title:
    Size: 6.92 Gb ( 7 256 870 KBytes ) - DVD-9
    Enabled regions: 1, 2, 3, 4, 5, 6, 7, 8
    VTS_01 :
    Play Length: 02:48:53
    Video: NTSC 16:9 (720x480) VBR, Auto PanScan
    Audio:
    Russian (Dolby AC3, 6 ch)
    Russian (Dolby AC3, 6 ch)
    Russian (Dolby AC3, 6 ch)
    English (Dolby AC3, 6 ch)
    English (DTS, 6 ch)
    Menu Video:
    NTSC 4:3 (704x480) VBR
    Menu English Language Unit :
    Root Menu
    MediaInfo
    Общее
    Полное имя : D:ААА2ИнтерстелларVIDEO_TSVTS_01_1.VOB
    Формат : MPEG-PS
    Размер файла : 1000 Мбайт
    Продолжительность : 24 м.
    Режим общего битрейта : Переменный
    Общий поток : 5659 Кбит/сек
    Видео
    Идентификатор : 224 (0xE0)
    Формат : MPEG Video
    Версия формата : Version 2
    Профиль формата : Main@Main
    Параметр BVOP формата : Да
    Параметр матрицы формата : По умолчанию
    Параметр GOP формата : M=3, N=12
    Продолжительность : 24 м.
    Вид битрейта : Переменный
    Битрейт : 2502 Кбит/сек
    Максимальный битрейт : 6528 Кбит/сек
    Ширина : 720 пикселей
    Высота : 480 пикселей
    Соотношение сторон : 16:9
    Частота кадров : 23,976 кадра/сек
    Стандарт вещания : NTSC
    Цветовое пространство : YUV
    Субдискретизация насыщенности : 4:2:0
    Битовая глубина : 8 бит
    Тип развёртки : Прогрессивная
    Порядок развёртки : 2:3 Pulldown
    Метод сжатия : С потерями
    Бит/(Пиксели*Кадры) : 0.302
    TimeCode_FirstFrame : 00:00:00;00
    TimeCode_Source : Group of pictures t_head
    Размер потока : 442 Мбайт (44%)
    Аудио #1
    Идентификатор : 189 (0xBD)-128 (0x80)
    Формат : AC-3
    Формат/Информация : Audio Coding 3
    Расширение режима : CM (complete main)
    Параметр Endianness формата : Big
    Режим смешивания : DVD-Video
    Продолжительность : 24 м.
    Вид битрейта : Постоянный
    Битрейт : 384 Кбит/сек
    Каналы : 6 каналов
    Расположение каналов : Front: L C R, Side: L R, LFE
    Частота : 48,0 КГц
    Битовая глубина : 16 бит
    Метод сжатия : С потерями
    Размер потока : 67,9 Мбайт (7%)
    Аудио #2
    Идентификатор : 189 (0xBD)-129 (0x81)
    Формат : AC-3
    Формат/Информация : Audio Coding 3
    Расширение режима : CM (complete main)
    Параметр Endianness формата : Big
    Режим смешивания : DVD-Video
    Продолжительность : 24 м.
    Вид битрейта : Постоянный
    Битрейт : 384 Кбит/сек
    Каналы : 6 каналов
    Расположение каналов : Front: L C R, Side: L R, LFE
    Частота : 48,0 КГц
    Битовая глубина : 16 бит
    Метод сжатия : С потерями
    Размер потока : 67,9 Мбайт (7%)
    Аудио #3
    Идентификатор : 189 (0xBD)-130 (0x82)
    Формат : AC-3
    Формат/Информация : Audio Coding 3
    Расширение режима : CM (complete main)
    Параметр Endianness формата : Big
    Режим смешивания : DVD-Video
    Продолжительность : 24 м.
    Вид битрейта : Постоянный
    Битрейт : 384 Кбит/сек
    Каналы : 6 каналов
    Расположение каналов : Front: L C R, Side: L R, LFE
    Частота : 48,0 КГц
    Битовая глубина : 16 бит
    Метод сжатия : С потерями
    Размер потока : 67,9 Мбайт (7%)
    Аудио #4
    Идентификатор : 189 (0xBD)-131 (0x83)
    Формат : AC-3
    Формат/Информация : Audio Coding 3
    Расширение режима : CM (complete main)
    Параметр Endianness формата : Big
    Режим смешивания : DVD-Video
    Продолжительность : 24 м.
    Вид битрейта : Постоянный
    Битрейт : 384 Кбит/сек
    Каналы : 6 каналов
    Расположение каналов : Front: L C R, Side: L R, LFE
    Частота : 48,0 КГц
    Битовая глубина : 16 бит
    Метод сжатия : С потерями
    Размер потока : 67,9 Мбайт (7%)
    Аудио #5
    Идентификатор : 189 (0xBD)-140 (0x8C)
    Формат : DTS
    Формат/Информация : Digital Theater Systems
    Режим : 16
    Параметр Endianness формата : Big
    Режим смешивания : DVD-Video
    Продолжительность : 24 м.
    Вид битрейта : Постоянный
    Битрейт : 1509 Кбит/сек
    Каналы : 6 каналов
    Расположение каналов : Front: L C R, Side: L R, LFE
    Частота : 48,0 КГц
    Битовая глубина : 24 бит
    Метод сжатия : С потерями
    Размер потока : 267 Мбайт (27%)
    Меню






    Скриншоты

    Релиз:
    Залил: YArl
    Размер скачиваемого торрента: 6.92 GB (7431034880 Bytes)

    Интерстеллар/Interstellar (2014) DVD-9 | IMAX Edition
    загрузка...
    Рейтинг →
     (голосов: 1, оценка 3/5, голосовать можно 1 раз )

    Другие торренты по теме:

  • Интерстеллар / Interstellar (2014) DCPrip | Тизер торрент скачать бесплатно
  • Интерстеллар (2014) TS скачать через торрент бесплатно
  • Интерстеллар / Interstellar скачать через торрент бесплатно
  • Интерстеллар / Interstellar (2014) CAMRip торрент скачать бесплатно
  • Интерстеллар / Interstellar (2014) CAMRip торрент скачать бесплатно
  • Интерстеллар / Interstellar (2014) CAMRip *PROPER* скачать через торрент бесплатно
  • Интерстеллар / Interstellar (2014) WEBRip 720p | Чистый звук скачать через торрент бесплатно
  • Интерстеллар / Interstellar (2014) HDRip | Чистый звук скачать торрент бесплатно


    • Комментарии (0):

      Информация

      Информация

        Посетители, находящиеся в группе Гости, не могут оставлять комментарии в данной новости.

        ↓ Меню



        ↓ Опрос

        А Вы добавили сайт в закладки?
        Да
        Не


        Top 10 за неделю (Фильмы)