.
Авторизация | Регистрация
Хочешь лучшие торренты? Добавь свой email!
Добавить
» » Шестой игрок / The Sixth Man (1997) WEB-DL 720p от HDClub | P торрент скачать бесплатно




    Шестой игрок / The Sixth Man (1997) WEB-DL 720p от HDClub | P торрент скачать бесплатно

    Опубликовал: Админ | Дата: 19-03-2015, 21:00 | Просмотров: 224


    Детально о кино
    Русское название:Шестой игрок
    Русское название в мировом прокате:The Sixth Man
    Создали в:1997
    Категория жанра:комедия, фэнтези, драма, спорт
    Главный режиссер:Рэндолл Миллер/Randall Miller/

    Актеры
    Марлон Уайанс/Marlon Wayans/, Кадим Хардисон/Kadeem Hardison/, Дэвид Пэймер/David Paymer/, Майкл Мишель/Michael Michele/, Кевин Данн/Kevin Dunn/, Гари Джонс/Gary Jones/, Лоренцо Орр/Lorenzo Orr/, Владимир Кук/Vladimir Cuk/, Трэвис Форд/Travis Ford/, Джек Карулетва/Jack Karuletwa/

    Сюжет фильма

    Кенни Тайлер и его старший брат Энтони — звезды школьной баскетбольной команды. Неожиданная смерть Энтони не оставляет ему практически никаких шансов на успех. Но вдруг все меняется. Бывший аутсайдер одерживает победу за победой.
    Как будто кто-то невидимый помогает будущим чемпионам… Какая-то таинственная сила… или просто призрак старшего брата, который самовольно вышел на площадку в качестве шестого игрока. Казалось бы, лучше и быть не может, но Кени хочет выиграть честно…

    Снималось в:США
    Киностудия:All Net Productions/Mandeville Films/Touchstone Pictures
    Время просмотра:01:48:04
    Перевод текста:
    Профессиональный (многоголосый, закадровый) -Видеосервис/VHS
    Профессиональный (многоголосый, закадровый) -СТС/Фильмэкспорт
    Релиз подготовил:byStuey
    Файл
    Кодек для видео:H.264
    Качество фильма:WEB-DL 720p
    Информация о видео:1280x718 at 23.976 fps, MPEG-4 AVC, ~4000 kbps avg
    Информация о звуке#1:Russian:48 kHz, AC3, 2/0 (L,R) ch, ~192 kbps avg |Многоголосый закадровый,Видеосервис/VHS|
    Информация о звуке#2:Russian:48 kHz, AAC, 2/0 (L,R) ch, ~160 kbps avg |Многоголосый закадровый,СТС/Фильмэкспорт|
    Информация о звуке#3:English:48 kHz, AC3, 3/2 (L,C,R,l,r) + LFE ch, ~384 kbps avg |Оригинал|
    Субтитры:Russian(Full, Forsed),English(Full)
    Скриншоты
    MediaInfo
    General
    Complete name : The.Sixth.Man.1997.WEB-DL.2xRus.Eng.HDCLUB.mkv
    Format : Matroska
    Format version : Version 4/Version 2
    File size : 3.62 GiB
    Duration : 1h 48mn
    Overall bit rate : 4 790 Kbps
    Movie name : The Sixth Man (1997) Release for HDCLUB
    Encoded date : UTC 2015-03-09 20:30:44
    Writing application : mkvmerge v7.0.0 (;Where We Going;) 32bit built on Jun 9 2014 15:08:34
    Writing library : libebml v1.3.0 + libmatroska v1.4.1
    DURATION : 01:46:50.202000000
    NUMBER_OF_FRAMES : 1915
    NUMBER_OF_BYTES : 98651
    _STATISTICS_WRITING_APP : mkvmerge v7.0.0 (;Where We Going;) 32bit built on Jun 9 2014 15:08:34
    _STATISTICS_WRITING_DATE_UTC : 2015-03-09 20:30:44
    _STATISTICS_TAGS : BPS DURATION NUMBER_OF_FRAMES NUMBER_OF_BYTES
    Video
    ID : 1
    Format : AVC
    Format/Info : Advanced Video Codec
    Format profile : High@L3.1
    Format settings, CABAC : No
    Format settings, ReFrames : 2 frames
    Codec ID : V_MPEG4/ISO/AVC
    Duration : 1h 48mn
    Width : 1 280 pixels
    Height : 718 pixels
    Display aspect ratio : 16:9
    Frame rate mode : Constant
    Frame rate : 23.976 fps
    Color space : YUV
    Chroma subsampling : 4:2:0
    Bit depth : 8 bits
    Scan type : Progressive
    Title : Release for HDCLUB
    Language : English
    Default : Yes
    Forced : No
    Color primaries : BT.709
    Transfer characteristics : BT.709
    Matrix coefficients : BT.709
    Color range : Limited
    Audio #1
    ID : 2
    Format : AC-3
    Format/Info : Audio Coding 3
    Mode extension : CM (complete main)
    Format settings, Endianness : Big
    Codec ID : A_AC3
    Duration : 1h 48mn
    Bit rate mode : Constant
    Bit rate : 192 Kbps
    Channel(s) : 2 channels
    Channel positions : Front: L R
    Sampling rate : 48.0 KHz
    Bit depth : 16 bits
    Compression mode : Lossy
    Stream size : 148 MiB (4%)
    Title : Videoservis, R5
    Language : Russian
    Default : Yes
    Forced : No
    Audio #2
    ID : 3
    Format : AAC
    Format/Info : Advanced Audio Codec
    Format profile : LC
    Codec ID : A_AAC
    Duration : 1h 48mn
    Channel(s) : 2 channels
    Channel positions : Front: L R
    Sampling rate : 48.0 KHz
    Compression mode : Lossy
    Title : STS/Filmeksport
    Language : Russian
    Default : No
    Forced : No
    Audio #3
    ID : 4
    Format : AC-3
    Format/Info : Audio Coding 3
    Mode extension : CM (complete main)
    Format settings, Endianness : Big
    Codec ID : A_AC3
    Duration : 1h 48mn
    Bit rate mode : Constant
    Bit rate : 384 Kbps
    Channel(s) : 6 channels
    Channel positions : Front: L C R, Side: L R, LFE
    Sampling rate : 48.0 KHz
    Bit depth : 16 bits
    Compression mode : Lossy
    Stream size : 297 MiB (8%)
    Title : English
    Language : English
    Default : No
    Forced : No
    Text #1
    ID : 5
    Format : UTF-8
    Codec ID : S_TEXT/UTF8
    Codec ID/Info : UTF-8 Plain Text
    Title : Rus full
    Language : Russian
    Default : No
    Forced : No
    Text #2
    ID : 6
    Format : UTF-8
    Codec ID : S_TEXT/UTF8
    Codec ID/Info : UTF-8 Plain Text
    Title : Rus forsed
    Language : Russian
    Default : Yes
    Forced : Yes
    Text #3
    ID : 7
    Format : UTF-8
    Codec ID : S_TEXT/UTF8
    Codec ID/Info : UTF-8 Plain Text
    Title : English
    Language : English
    Default : No
    Forced : No
    Дополнительная информация
    ЦитатаКто-тописал:
    Отдельная благодарностьjhonny2

    Размер скачиваемого торрента: 3.62 GB (3883241591 Bytes)

    Шестой игрок/The Sixth Man (1997) WEB-DL 720p от HDClub | P
    загрузка...
    Рейтинг →
     (голосов: 1, оценка 3/5, голосовать можно 1 раз )

    Другие торренты по теме:

  • Шестой игрок / The Sixth Man (1997) WEB-DLRip от Dalemake | P


    • Комментарии (0):

      Информация

      Информация

        Посетители, находящиеся в группе Гости, не могут оставлять комментарии в данной новости.

        ↓ Меню



        ↓ Опрос

        А Вы добавили сайт в закладки?
        Да
        Не


        Top 10 за месяц (Фильмы)