.
Авторизация | Регистрация
» » Если бы я был тобой / Se Eu Fosse Voc (2006) DVDRip | Sub скачать торрент бесплатно




    Если бы я был тобой / Se Eu Fosse Voc (2006) DVDRip | Sub скачать торрент бесплатно

    Опубликовал: Админ | Дата: 20-03-2015, 22:00 | Просмотров: 171


    Детально о кино
    Русское название:Если бы я был тобой
    Русское название в мировом прокате:Se Eu Fosse Voc?
    Создали в:2006
    Категория жанра:комедия
    Главный режиссер:Даниэл Филью

    Актеры
    Тони Рамос, Глория Пиреш, Тьяго Ласерда, Глория Менезес, Лавиния Власак, Даниэлла Винитц, Мария Сейса, Лара Родригез, Мария Глэдис, Деннис Карвалью

    Сюжет фильма

    Клаудио и Хелена находятся на грани разрыва отношений, и пока этого не случилось, должно произойти нечто такое, что помогло бы им лучше понять друг друга…

    Снималось в:Бразилия
    Время просмотра:01:43:23
    Перевод текста:Субтитры
    Файл
    Кодек для видео:H264
    Качество фильма:DVDRip
    Информация о видео:960 Кбит/сек, 512х288, 23,976 кадра/сек
    Информация о звуке:MPEG Audio, 128 Кбит/сек, 2 канала, 44,1 КГц
    Субтитры:Русские
    Скриншоты

    MI
    Общее
    Полное имя : D:загрузки с браузераRuTorSe.Eu.Fosse.Voce.DVDRip.Nacional.avi
    Формат : AVI
    Формат/Информация : Audio Video Interleave
    Размер файла : 813 Мбайт
    Продолжительность : 1 ч. 43 м.
    Общий поток : 1100 Кбит/сек
    Программа кодирования : Lavf51.12.1
    Видео
    Идентификатор : 0
    Формат : AVC
    Формат/Информация : Advanced Video Codec
    Профиль формата : Baseline@L1.3
    Параметр CABAC формата : Нет
    Параметр ReFrames формата : 1 кадр
    Параметр GOP формата : M=1, N=12
    Идентификатор кодека : H264
    Продолжительность : 1 ч. 43 м.
    Битрейт : 960 Кбит/сек
    Ширина : 512 пикселей
    Высота : 288 пикселей
    Соотношение сторон : 16:9
    Режим частоты кадров : Переменный
    Частота кадров : 23,976 кадра/сек
    Цветовое пространство : YUV
    Субдискретизация насыщенности : 4:2:0
    Битовая глубина : 8 бит
    Тип развёртки : Прогрессивная
    Бит/(Пиксели*Кадры) : 0.272
    Размер потока : 710 Мбайт (87%)
    Аудио
    Идентификатор : 1
    Формат : MPEG Audio
    Версия формата : Version 1
    Профиль формата : Layer 3
    Режим : Joint stereo
    Идентификатор кодека : 55
    Идентификатор кодека/Подсказка : MP3
    Продолжительность : 1 ч. 43 м.
    Вид битрейта : Постоянный
    Битрейт : 128 Кбит/сек
    Каналы : 2 канала
    Частота : 44,1 КГц
    Метод сжатия : С потерями
    Размер потока : 94,4 Мбайт (12%)
    Выравнивание : Соединение по промежуткам
    Продолжительность промежутка : 26 мс. (0,63 видеокадр)
    Время предзагрузки промежутка : 26 мс.

    Залил: MasterGreenSoft
    Размер скачиваемого торрента: 813.46 MB (852979718 Bytes)

    Если бы я был тобой/Se Eu Fosse Voc (2006) DVDRip | Sub
    загрузка...
    Рейтинг →
     (голосов: 1, оценка 4/5, голосовать можно 1 раз )

    Другие торренты по теме:

  • Дмитрий Семеник, Михаил Хасьминский - Выход есть! (суицид, как быть, если не хочется жить) (2010) PDF, DjVu, DOC, FB2 торрент скачать бесплатно
  • Если любить... как они / If in love... like them / Perhaps Love / A Special Promise (2007) TVRip-AVC от BTT-TEAM и AniFilm торрент скачать бесплатно
  • Хамилтон 2: только если это не касается вашей дочери / Hamilton 2: Unless Its About Your Daughter (2012) HDRip | L1 торрент скачать бесплатно
  • Если небо молчит (2010) SATRip от Files-x торрент скачать бесплатно
  • Если небо молчит (2010) DVB от Files-x торрент скачать бесплатно
  • Это правда, если я вру 2 / La verite si je mens! 2 (2001) HDTVRip от Rulya74 торрент скачать бесплатно
  • OST - Поймай толстуху, если сможешь / Identity Thief (2013) MP3 от Kulemina - Generalfilm торрент скачать бесплатно
  • Если хочешь хорошо провести время, звони… / For a Good Time, Call... (2012) BDRip 1080p торрент скачать бесплатно


    • Комментарии (0):

      Информация

      Информация

        Посетители, находящиеся в группе Гости, не могут оставлять комментарии в данной новости.

        ↓ Меню



        ↓ Опрос

        А Вы добавили сайт в закладки?
        Да
        Не


        Top 10 за неделю (Фильмы)