.
Авторизация | Регистрация
Хочешь лучшие торренты? Добавь свой email!
Добавить
» » Если бы я был тобой / Se Eu Fosse Voc (2006) DVDRip | Sub торрент скачать бесплатно




    Если бы я был тобой / Se Eu Fosse Voc (2006) DVDRip | Sub торрент скачать бесплатно

    Опубликовал: Админ | Дата: 20-03-2015, 22:00 | Просмотров: 171


    Детально о кино
    Русское название:Если бы я был тобой
    Русское название в мировом прокате:Se Eu Fosse Voc?
    Создали в:2006
    Категория жанра:комедия
    Главный режиссер:Даниэл Филью

    Актеры
    Тони Рамос, Глория Пиреш, Тьяго Ласерда, Глория Менезес, Лавиния Власак, Даниэлла Винитц, Мария Сейса, Лара Родригез, Мария Глэдис, Деннис Карвалью

    Сюжет фильма

    Клаудио и Хелена находятся на грани разрыва отношений, и пока этого не случилось, должно произойти нечто такое, что помогло бы им лучше понять друг друга…

    Снималось в:Бразилия
    Время просмотра:01:43:23
    Перевод текста:Субтитры
    Файл
    Кодек для видео:H264
    Качество фильма:DVDRip
    Информация о видео:960 Кбит/сек, 512х288, 23,976 кадра/сек
    Информация о звуке:MPEG Audio, 128 Кбит/сек, 2 канала, 44,1 КГц
    Субтитры:Русские
    Скриншоты

    MI
    Общее
    Полное имя : D:загрузки с браузераRuTorSe.Eu.Fosse.Voce.DVDRip.Nacional.avi
    Формат : AVI
    Формат/Информация : Audio Video Interleave
    Размер файла : 813 Мбайт
    Продолжительность : 1 ч. 43 м.
    Общий поток : 1100 Кбит/сек
    Программа кодирования : Lavf51.12.1
    Видео
    Идентификатор : 0
    Формат : AVC
    Формат/Информация : Advanced Video Codec
    Профиль формата : Baseline@L1.3
    Параметр CABAC формата : Нет
    Параметр ReFrames формата : 1 кадр
    Параметр GOP формата : M=1, N=12
    Идентификатор кодека : H264
    Продолжительность : 1 ч. 43 м.
    Битрейт : 960 Кбит/сек
    Ширина : 512 пикселей
    Высота : 288 пикселей
    Соотношение сторон : 16:9
    Режим частоты кадров : Переменный
    Частота кадров : 23,976 кадра/сек
    Цветовое пространство : YUV
    Субдискретизация насыщенности : 4:2:0
    Битовая глубина : 8 бит
    Тип развёртки : Прогрессивная
    Бит/(Пиксели*Кадры) : 0.272
    Размер потока : 710 Мбайт (87%)
    Аудио
    Идентификатор : 1
    Формат : MPEG Audio
    Версия формата : Version 1
    Профиль формата : Layer 3
    Режим : Joint stereo
    Идентификатор кодека : 55
    Идентификатор кодека/Подсказка : MP3
    Продолжительность : 1 ч. 43 м.
    Вид битрейта : Постоянный
    Битрейт : 128 Кбит/сек
    Каналы : 2 канала
    Частота : 44,1 КГц
    Метод сжатия : С потерями
    Размер потока : 94,4 Мбайт (12%)
    Выравнивание : Соединение по промежуткам
    Продолжительность промежутка : 26 мс. (0,63 видеокадр)
    Время предзагрузки промежутка : 26 мс.

    Залил: MasterGreenSoft
    Размер скачиваемого торрента: 813.46 MB (852979718 Bytes)

    Если бы я был тобой/Se Eu Fosse Voc (2006) DVDRip | Sub
    загрузка...
    Рейтинг →
     (голосов: 1, оценка 3/5, голосовать можно 1 раз )

    Другие торренты по теме:

  • Если бы у меня была пушка / Keby som mal pusku / If I had a gun (1972) DVDRip | A
  • Если бы я был тобой 2 / Se Eu Fosse Voce 2 (2009) DVDRip | P2
  • Если бы я был тобой 2 / Se Eu Fosse Voce 2 (2009) DVD5 R2 | P2 | custom
  • Если бы Дон-Жуан был женщиной / Don Juan ou Si Don Juan etait une femme (1973) DVDRip-AVC от =Т-Хzona=
  • Если бы я был белым арапом / De-as Fi Harap Alb (1965) DVDRip | Sub
  • Если бы я был тобой / If I Were You / Jia Ru Wo Shi Ni (2012) HDTVRip | L2
  • Доклад о школьницах 12: Если бы об этом мамочка знала / Schulmdchen-Report 12. Teil - Wenn das die Mammi wsste (1978) DVDRip | A
  • Если бы эти стены могли говорить / If These Walls Could Talk (1996) DVD5


    • Комментарии (0):

      Информация

      Информация

        Посетители, находящиеся в группе Гости, не могут оставлять комментарии в данной новости.

        ↓ Меню



        ↓ Опрос

        А Вы добавили сайт в закладки?
        Да
        Не


        Top 10 за месяц (Фильмы)