.
Авторизация | Регистрация
» » Цимбелин / Cymbeline (2014) WEB-DL 720p | L2 скачать торрент бесплатно




    Цимбелин / Cymbeline (2014) WEB-DL 720p | L2 скачать торрент бесплатно

    Опубликовал: Админ | Дата: 22-03-2015, 19:00 | Просмотров: 197


    Детально о кино
    Русское название: Цимбелин
    Русское название в мировом прокате: Cymbeline
    Создали в: 2014
    Категория жанра: драма
    Главный режиссер: Майкл Алмерейда

    Актеры
    Итан Хоук, Эд Харрис, Милла Йовович, Дакота Джонсон, Антон Ельчин, Пенн Бэджли, Джон Легуизамо, Питер Герети, Кевин Корригэн, Вонди Куртис-Холл

    Сюжет фильма
    Современный пересказ одноименной трагедии Уильяма Шекспира. Действие перенесено в наши дни. Цимбелин, лидер байкеров-наркоторговцев, объявляет войну местным продажным полицейским. Его дочери, Имогене и ее возлюбленному Постуму приходится самим сражаться за свою любовь.

    Снималось в: США/Benaroya Pictures, Keep Your Head Productions
    Время просмотра: 01:38:30
    Тип перевода:Любительское (двухголосое) Студия Пиратского Дубляжа
    Файл
    Тип видео: MKV
    Качество фильма: WEB-DL 720p
    Информация о видео: 3957 kb/s, 1280x690
    Информация о звуке: Russian: AC3, 384 kb/s (2 ch)/English: AC3, 384 kb/s (6 ch)
    Субтитры: English
    MI

    Format : Matroska
    Format version : Version 4/Version 2
    File size : 3.32 GiB
    Duration : 1h 38mn
    Overall bit rate : 4 821 Kbps
    Encoded date : UTC 2015-03-22 15:23:00
    Writing application : mkvmerge v6.1.0 (;Old Devil;) built on Mar 4 2013 09:10:42
    Writing library : libebml v1.3.0 + libmatroska v1.4.0
    Video
    ID : 1
    Format : AVC
    Format/Info : Advanced Video Codec
    Format profile : High@L3.1
    Format settings, CABAC : No
    Format settings, ReFrames : 2 frames
    Codec ID : V_MPEG4/ISO/AVC
    Duration : 1h 38mn
    Bit rate : 3 957 Kbps
    Width : 1 280 pixels
    Height : 690 pixels
    Display aspect ratio : 1.85:1
    Frame rate : 23.976 fps
    Color space : YUV
    Chroma subsampling : 4:2:0
    Bit depth : 8 bits
    Scan type : Progressive
    Bits/(Pixel*Frame) : 0.187
    Stream size : 2.72 GiB (82%)
    Language : English
    Default : Yes
    Forced : No
    Color primaries : BT.709-5, BT.1361, IEC 61966-2-4, SMPTE RP177
    Transfer characteristics : BT.709-5, BT.1361
    Matrix coefficients : BT.709-5, BT.1361, IEC 61966-2-4 709, SMPTE RP177
    Audio #1
    ID : 2
    Format : AC-3
    Format/Info : Audio Coding 3
    Mode extension : CM (complete main)
    Format settings, Endianness : Big
    Codec ID : A_AC3
    Duration : 1h 38mn
    Bit rate mode : Constant
    Bit rate : 384 Kbps
    Channel(s) : 2 channels
    Channel positions : Front: L R
    Sampling rate : 48.0 KHz
    Bit depth : 16 bits
    Compression mode : Lossy
    Stream size : 271 MiB (8%)
    Language : Russian
    Default : Yes
    Forced : No
    Audio #2
    ID : 3
    Format : AC-3
    Format/Info : Audio Coding 3
    Mode extension : CM (complete main)
    Format settings, Endianness : Big
    Codec ID : A_AC3
    Duration : 1h 38mn
    Bit rate mode : Constant
    Bit rate : 384 Kbps
    Channel(s) : 6 channels
    Channel positions : Front: L C R, Side: L R, LFE
    Sampling rate : 48.0 KHz
    Bit depth : 16 bits
    Compression mode : Lossy
    Stream size : 271 MiB (8%)
    Language : English
    Default : No
    Forced : No
    Text
    ID : 4
    Format : UTF-8
    Codec ID : S_TEXT/UTF8
    Codec ID/Info : UTF-8 Plain Text
    Language : English
    Default : No
    Forced : No
    Menu
    00:00:00.000 : en:Chapter 1
    00:10:20.000 : en:Chapter 2
    00:21:22.000 : en:Chapter 3
    00:30:48.000 : en:Chapter 4
    00:40:03.000 : en:Chapter 5
    00:50:36.000 : en:Chapter 6
    01:00:59.000 : en:Chapter 7
    01:09:26.000 : en:Chapter 8
    01:19:23.000 : en:Chapter 9
    01:25:00.000 : en:Chapter 10
    01:33:13.000 : en:Chapter 11
    Скриншоты

    Размер скачиваемого торрента: 3.32 GB (3561811798 Bytes)

    Цимбелин/Cymbeline (2014) WEB-DL 720p | L2
    загрузка...
    Рейтинг →
     (голосов: 1, оценка 4/5, голосовать можно 1 раз )

    Другие торренты по теме:

  • Цимбелин (2015) HDRip скачать торрент бесплатно
  • Цимбелин / Cymbeline (2014) BDRip 720p | L2 скачать торрент бесплатно
  • Цимбелин / Cymbeline (2014) HDRip | Чистый звук скачать торрент бесплатно
  • Цимбелин / Cymbeline (2014) HDRip | Чистый звук скачать торрент бесплатно
  • Цимбелин / Cymbeline (2014) HDRip от torrentfilm | Чистый звук скачать торрент бесплатно
  • Цимбелин / Cymbeline (2014) BDRip 720p | Чистый звук скачать торрент бесплатно
  • Цимбелин / Cymbeline (2014) BDRip 720p | Чистый звук скачать торрент бесплатно
  • Цимбелин / Cymbeline (2014) DVD5 | Лицензия скачать торрент бесплатно


    • Комментарии (0):

      Информация

      Информация

        Посетители, находящиеся в группе Гости, не могут оставлять комментарии в данной новости.

        ↓ Меню



        ↓ Опрос

        А Вы добавили сайт в закладки?
        Да
        Не


        Top 10 за неделю (Фильмы)