.
Авторизация | Регистрация
» » Драйвер на ночь / Stretch (2014) HDRip от AleksSin | L2 скачать торрент бесплатно




    Драйвер на ночь / Stretch (2014) HDRip от AleksSin | L2 скачать торрент бесплатно

    Опубликовал: Админ | Дата: 24-03-2015, 23:00 | Просмотров: 264


    Детально о кино
    Русское название:Драйвер на ночь
    Русское название в мировом прокате:Stretch
    Создали в:2014
    Категория жанра:боевик, триллер, комедия
    Главный режиссер:Джо Карнахан

    Актеры
    Патрик Уилсон, Эд Хелмс, Крис Пайн, Джеймс Бэдж Дэйл, Бруклин Декер, Джессика Альба, Рэй Лиотта, Дэвид Хассельхофф, Дженни Барбоза, Кевин Бигли, Sydney Bruso

    Сюжет фильма

    Невезучему шоферу лимузина до выплаты внушительного долга остается отработать всего одну смену. Его последним клиентом становится загадочный молодой миллиардер, пообещавший небывалые чаевые за несколько дополнительных услуг. В погоне за так нужными ему сейчас деньгами водитель ввязывается в безумные переделки на улицах Лос-Анджелеса, и чем больше ночь опускается на мегаполис, тем более призрачной видится ему надежда остаться в живых…

    Снималось в:США
    Киностудия:Universal Pictures, Blumhouse Productions
    Время просмотра:01:34:17
    Перевод текста:Любительское (двухголосое) Сладкая парочка
    Файл
    Кодек для видео:AVI (XviD)
    Качество фильма:HDRip (Исх. BDRip 720p)
    Информация о видео:688x288 (2.39:1), 23.976 fps, XviD build 73 ~967 kbps avg, 0.20 bit/pixel
    Информация о звуке:48 kHz, MPEG Layer 3, 2 ch, ~128.00 kbps avg
    Субтитры:нет
    Семпл
    MediaInfo

    Общее
    Полное имя : S:ФильмыДрайвер на ночь. 2014. HDRip. (AleksSin).avi
    Формат : AVI
    Формат/Информация : Audio Video Interleave
    Размер файла : 745 Мбайт
    Продолжительность : 1 ч. 34 м.
    Общий поток : 1104 Кбит/сек
    Программа кодирования : VirtualDubMod 1.5.10.3 | www.virtualdub-fr.org || (build 2550/release)
    Библиотека кодирования : VirtualDubMod build 2550/release
    Видео
    Идентификатор : 0
    Формат : MPEG-4 Visual
    Профиль формата : Advanced Simple@L5
    Параметр BVOP формата : 1
    Параметр QPel формата : Нет
    Параметр GMC формата : Без точки перехода
    Параметр матрицы формата : Выборочная
    Идентификатор кодека : XVID
    Идентификатор кодека/Подсказка : XviD
    Продолжительность : 1 ч. 34 м.
    Битрейт : 967 Кбит/сек
    Ширина : 688 пикс.
    Высота : 288 пикс.
    Соотношение сторон : 2,40:1
    Частота кадров : 23,976 кадр/сек
    Цветовое пространство : YUV
    Подвыборка цветности : 4:2:0
    Битовая глубина : 8 бит
    Тип развёртки : Прогрессивная
    Метод сжатия : С потерями
    Бит/(Пиксели*Кадры) : 0.204
    Размер потока : 652 Мбайт (88%)
    Библиотека кодирования : XviD 73
    Аудио
    Идентификатор : 1
    Формат : MPEG Audio
    Версия формата : Version 1
    Профиль формата : Layer 3
    Идентификатор кодека : 55
    Идентификатор кодека/Подсказка : MP3
    Продолжительность : 1 ч. 34 м.
    Вид битрейта : Постоянный
    Битрейт : 128 Кбит/сек
    Каналы : 2 канала
    Частота : 48,0 КГц
    Метод сжатия : С потерями
    Размер потока : 86,3 Мбайт (12%)
    Выравнивание : Соединение по промежуткам
    Продолжительность промежутка : 42 мс. (1,00 видеокадр)
    Время предзагрузки промежутка : 504 ms
    Библиотека кодирования : LAME3.99r
    Залил: *AleksSin*

    Онлайн видео Драйвер на ночь


    Размер скачиваемого торрента: 744.63 MB (780806144 Bytes)


    Драйвер на ночь/Stretch (2014) HDRip от AleksSin | L2
    загрузка...
    Рейтинг →
     (голосов: 1, оценка 3/5, голосовать можно 1 раз )

    Другие торренты по теме:



      Комментарии (0):

      Информация

      Информация

        Посетители, находящиеся в группе Гости, не могут оставлять комментарии в данной новости.

        ↓ Меню



        ↓ Опрос

        А Вы добавили сайт в закладки?
        Да
        Не


        Top 10 за неделю (Фильмы)